  0
SECTION
  2
HEADER
  9
$ACADVER
  1
AC1015
  9
$ACADMAINTVER
 70
    20
  9
$DWGCODEPAGE
  3
ANSI_932
  9
$INSBASE
 10
0.0
 20
0.0
 30
0.0
  9
$EXTMIN
 10
-0.1702504555714768
 20
-0.1204332752135997
 30
-0.0000000349181948
  9
$EXTMAX
 10
2789.681437458783
 20
1973.389564148916
 30
0.0000000814935746
  9
$LIMMIN
 10
0.0
 20
0.0
  9
$LIMMAX
 10
297.0
 20
209.0
  9
$ORTHOMODE
 70
     1
  9
$REGENMODE
 70
     1
  9
$FILLMODE
 70
     1
  9
$QTEXTMODE
 70
     0
  9
$MIRRTEXT
 70
     1
  9
$LTSCALE
 40
1.0
  9
$ATTMODE
 70
     1
  9
$TEXTSIZE
 40
2.5
  9
$TRACEWID
 40
1.0
  9
$TEXTSTYLE
  7
Standard
  9
$CLAYER
  8
嵩上断面
  9
$CELTYPE
  6
ByLayer
  9
$CECOLOR
 62
   256
  9
$CELTSCALE
 40
3.0
  9
$DISPSILH
 70
     0
  9
$DIMSCALE
 40
10.0
  9
$DIMASZ
 40
1.5
  9
$DIMEXO
 40
2.0
  9
$DIMDLI
 40
3.75
  9
$DIMRND
 40
0.0
  9
$DIMDLE
 40
0.0
  9
$DIMEXE
 40
1.5
  9
$DIMTP
 40
0.0
  9
$DIMTM
 40
0.0
  9
$DIMTXT
 40
3.0
  9
$DIMCEN
 40
2.5
  9
$DIMTSZ
 40
0.0
  9
$DIMTOL
 70
     0
  9
$DIMLIM
 70
     0
  9
$DIMTIH
 70
     0
  9
$DIMTOH
 70
     0
  9
$DIMSE1
 70
     0
  9
$DIMSE2
 70
     0
  9
$DIMTAD
 70
     1
  9
$DIMZIN
 70
     8
  9
$DIMBLK
  1
Open30
  9
$DIMASO
 70
     1
  9
$DIMSHO
 70
     1
  9
$DIMPOST
  1

  9
$DIMAPOST
  1

  9
$DIMALT
 70
     0
  9
$DIMALTD
 70
     3
  9
$DIMALTF
 40
0.03937007874016
  9
$DIMLFAC
 40
1.0
  9
$DIMTOFL
 70
     1
  9
$DIMTVP
 40
0.0
  9
$DIMTIX
 70
     0
  9
$DIMSOXD
 70
     0
  9
$DIMSAH
 70
     0
  9
$DIMBLK1
  1

  9
$DIMBLK2
  1

  9
$DIMSTYLE
  2
ISO-25
  9
$DIMCLRD
 70
     0
  9
$DIMCLRE
 70
     0
  9
$DIMCLRT
 70
     0
  9
$DIMTFAC
 40
1.0
  9
$DIMGAP
 40
0.5
  9
$DIMJUST
 70
     0
  9
$DIMSD1
 70
     0
  9
$DIMSD2
 70
     0
  9
$DIMTOLJ
 70
     0
  9
$DIMTZIN
 70
     8
  9
$DIMALTZ
 70
     0
  9
$DIMALTTZ
 70
     0
  9
$DIMUPT
 70
     0
  9
$DIMDEC
 70
     2
  9
$DIMTDEC
 70
     2
  9
$DIMALTU
 70
     2
  9
$DIMALTTD
 70
     3
  9
$DIMTXSTY
  7
Standard
  9
$DIMAUNIT
 70
     0
  9
$DIMADEC
 70
     0
  9
$DIMALTRND
 40
0.0
  9
$DIMAZIN
 70
     0
  9
$DIMDSEP
 70
    46
  9
$DIMATFIT
 70
     0
  9
$DIMFRAC
 70
     0
  9
$DIMLDRBLK
  1
Open30
  9
$DIMLUNIT
 70
     2
  9
$DIMLWD
 70
    -2
  9
$DIMLWE
 70
    -2
  9
$DIMTMOVE
 70
     0
  9
$LUNITS
 70
     2
  9
$LUPREC
 70
     4
  9
$SKETCHINC
 40
1.0
  9
$FILLETRAD
 40
9.9
  9
$AUNITS
 70
     0
  9
$AUPREC
 70
     0
  9
$MENU
  1
.
  9
$ELEVATION
 40
0.0
  9
$PELEVATION
 40
0.0
  9
$THICKNESS
 40
0.0
  9
$LIMCHECK
 70
     0
  9
$CHAMFERA
 40
10.0
  9
$CHAMFERB
 40
10.0
  9
$CHAMFERC
 40
20.0
  9
$CHAMFERD
 40
0.0
  9
$SKPOLY
 70
     0
  9
$TDCREATE
 40
2453510.558637211
  9
$TDUCREATE
 40
2453510.183637211
  9
$TDUPDATE
 40
2457542.716420845
  9
$TDUUPDATE
 40
2457542.341420845
  9
$TDINDWG
 40
0.1196888310
  9
$TDUSRTIMER
 40
0.1196888310
  9
$USRTIMER
 70
     1
  9
$ANGBASE
 50
0.0
  9
$ANGDIR
 70
     0
  9
$PDMODE
 70
     0
  9
$PDSIZE
 40
0.0
  9
$PLINEWID
 40
0.0
  9
$SPLFRAME
 70
     0
  9
$SPLINETYPE
 70
     6
  9
$SPLINESEGS
 70
     8
  9
$HANDSEED
  5
119A
  9
$SURFTAB1
 70
     6
  9
$SURFTAB2
 70
     6
  9
$SURFTYPE
 70
     6
  9
$SURFU
 70
     6
  9
$SURFV
 70
     6
  9
$UCSBASE
  2

  9
$UCSNAME
  2

  9
$UCSORG
 10
0.0
 20
0.0
 30
0.0
  9
$UCSXDIR
 10
1.0
 20
0.0
 30
0.0
  9
$UCSYDIR
 10
0.0
 20
1.0
 30
0.0
  9
$UCSORTHOREF
  2

  9
$UCSORTHOVIEW
 70
     0
  9
$UCSORGTOP
 10
0.0
 20
0.0
 30
0.0
  9
$UCSORGBOTTOM
 10
0.0
 20
0.0
 30
0.0
  9
$UCSORGLEFT
 10
0.0
 20
0.0
 30
0.0
  9
$UCSORGRIGHT
 10
0.0
 20
0.0
 30
0.0
  9
$UCSORGFRONT
 10
0.0
 20
0.0
 30
0.0
  9
$UCSORGBACK
 10
0.0
 20
0.0
 30
0.0
  9
$PUCSBASE
  2

  9
$PUCSNAME
  2

  9
$PUCSORG
 10
0.0
 20
0.0
 30
0.0
  9
$PUCSXDIR
 10
1.0
 20
0.0
 30
0.0
  9
$PUCSYDIR
 10
0.0
 20
1.0
 30
0.0
  9
$PUCSORTHOREF
  2

  9
$PUCSORTHOVIEW
 70
     0
  9
$PUCSORGTOP
 10
0.0
 20
0.0
 30
0.0
  9
$PUCSORGBOTTOM
 10
0.0
 20
0.0
 30
0.0
  9
$PUCSORGLEFT
 10
0.0
 20
0.0
 30
0.0
  9
$PUCSORGRIGHT
 10
0.0
 20
0.0
 30
0.0
  9
$PUCSORGFRONT
 10
0.0
 20
0.0
 30
0.0
  9
$PUCSORGBACK
 10
0.0
 20
0.0
 30
0.0
  9
$USERI1
 70
     0
  9
$USERI2
 70
     0
  9
$USERI3
 70
     0
  9
$USERI4
 70
     0
  9
$USERI5
 70
     0
  9
$USERR1
 40
0.0
  9
$USERR2
 40
0.0
  9
$USERR3
 40
0.0
  9
$USERR4
 40
0.0
  9
$USERR5
 40
0.0
  9
$WORLDVIEW
 70
     1
  9
$SHADEDGE
 70
     3
  9
$SHADEDIF
 70
    70
  9
$TILEMODE
 70
     1
  9
$MAXACTVP
 70
    48
  9
$PINSBASE
 10
0.0
 20
0.0
 30
0.0
  9
$PLIMCHECK
 70
     0
  9
$PEXTMIN
 10
0.0
 20
0.0
 30
0.0
  9
$PEXTMAX
 10
0.0
 20
0.0
 30
0.0
  9
$PLIMMIN
 10
0.0
 20
0.0
  9
$PLIMMAX
 10
12.0
 20
9.0
  9
$UNITMODE
 70
     0
  9
$VISRETAIN
 70
     1
  9
$PLINEGEN
 70
     0
  9
$PSLTSCALE
 70
     1
  9
$TREEDEPTH
 70
  3020
  9
$CMLSTYLE
  2
Standard
  9
$CMLJUST
 70
     0
  9
$CMLSCALE
 40
20.0
  9
$PROXYGRAPHICS
 70
     1
  9
$MEASUREMENT
 70
     1
  9
$CELWEIGHT
370
    -1
  9
$ENDCAPS
280
     0
  9
$JOINSTYLE
280
     0
  9
$LWDISPLAY
290
     0
  9
$INSUNITS
 70
     4
  9
$HYPERLINKBASE
  1

  9
$STYLESHEET
  1
monochrome.ctb
  9
$XEDIT
290
     1
  9
$CEPSNTYPE
380
     0
  9
$PSTYLEMODE
290
     1
  9
$FINGERPRINTGUID
  2

  9
$VERSIONGUID
  2
{1E8930A4-92C3-4E01-9C3C-07F4CE8CF254}
  9
$EXTNAMES
290
     1
  9
$PSVPSCALE
 40
0.0
  9
$OLESTARTUP
290
     0
  0
ENDSEC
  0
SECTION
  2
CLASSES
  0
CLASS
  1
ACDBDICTIONARYWDFLT
  2
AcDbDictionaryWithDefault
  3
ObjectDBX Classes
 90
        0
280
     0
281
     0
  0
CLASS
  1
ACDBPLACEHOLDER
  2
AcDbPlaceHolder
  3
ObjectDBX Classes
 90
        0
280
     0
281
     0
  0
CLASS
  1
LAYOUT
  2
AcDbLayout
  3
ObjectDBX Classes
 90
        0
280
     0
281
     0
  0
CLASS
  1
DICTIONARYVAR
  2
AcDbDictionaryVar
  3
ObjectDBX Classes
 90
        0
280
     0
281
     0
  0
CLASS
  1
MATERIAL
  2
AcDbMaterial
  3
ObjectDBX Classes
 90
     1153
280
     0
281
     0
  0
CLASS
  1
VISUALSTYLE
  2
AcDbVisualStyle
  3
ObjectDBX Classes
 90
     4095
280
     0
281
     0
  0
CLASS
  1
TABLESTYLE
  2
AcDbTableStyle
  3
ObjectDBX Classes
 90
     4095
280
     0
281
     0
  0
CLASS
  1
SCALE
  2
AcDbScale
  3
ObjectDBX Classes
 90
     1153
280
     0
281
     0
  0
CLASS
  1
MLEADERSTYLE
  2
AcDbMLeaderStyle
  3
ACDB_MLEADERSTYLE_CLASS
 90
     4095
280
     0
281
     0
  0
CLASS
  1
ACDBSECTIONVIEWSTYLE
  2
AcDbSectionViewStyle
  3
ObjectDBX Classes
 90
     1025
280
     0
281
     0
  0
CLASS
  1
ACDBDETAILVIEWSTYLE
  2
AcDbDetailViewStyle
  3
ObjectDBX Classes
 90
     1025
280
     0
281
     0
  0
CLASS
  1
CELLSTYLEMAP
  2
AcDbCellStyleMap
  3
ObjectDBX Classes
 90
     1152
280
     0
281
     0
  0
CLASS
  1
SORTENTSTABLE
  2
AcDbSortentsTable
  3
ObjectDBX Classes
 90
        0
280
     0
281
     0
  0
CLASS
  1
ACARRAYJIGENTITY
  2
AcArrayJigEntity
  3
ACAD_ARRAY
 90
      129
280
     0
281
     1
  0
CLASS
  1
ACDBASSOCNETWORK
  2
AcDbAssocNetwork
  3
ObjectDBX Classes
 90
     1025
280
     0
281
     0
  0
CLASS
  1
ACDBASSOCACTION
  2
AcDbAssocAction
  3
ObjectDBX Classes
 90
     1025
280
     0
281
     0
  0
CLASS
  1
ACDBASSOCARRAYACTIONBODY
  2
AcDbAssocArrayActionBody
  3
ObjectDBX Classes
 90
     1025
280
     0
281
     0
  0
CLASS
  1
ACDBASSOCVERTEXACTIONPARAM
  2
AcDbAssocVertexActionParam
  3
ObjectDBX Classes
 90
     1025
280
     0
281
     0
  0
CLASS
  1
ACDBASSOCDEPENDENCY
  2
AcDbAssocDependency
  3
ObjectDBX Classes
 90
     1025
280
     0
281
     0
  0
CLASS
  1
ACDBASSOCARRAYRECTANGULARPARAMETERS
  2
AcDbAssocArrayRectangularParameters
  3
ObjectDBX Classes
 90
    33793
280
     0
281
     0
  0
ENDSEC
  0
SECTION
  2
TABLES
  0
TABLE
  2
VPORT
  5
697
102
{ACAD_XDICTIONARY
360
E14
102
}
330
0
100
AcDbSymbolTable
 70
     1
  0
VPORT
  5
DA2
330
697
100
AcDbSymbolTableRecord
100
AcDbViewportTableRecord
  2
*Active
 70
     0
 10
0.0
 20
0.0
 11
1.0
 21
1.0
 12
1394.755593501606
 22
986.6345654368512
 13
0.0
 23
0.0
 14
10.0
 24
10.0
 15
10.0
 25
10.0
 16
0.0
 26
0.0
 36
1.0
 17
0.0
 27
0.0
 37
0.0
 40
1992.76375349656
 41
3.021172638436481
 42
50.0
 43
0.0
 44
0.0
 50
0.0
 51
0.0
 71
     0
 72
   100
 73
     1
 74
     3
 75
     0
 76
     0
 77
     0
 78
     0
281
     0
 65
     1
110
0.0
120
0.0
130
0.0
111
1.0
121
0.0
131
0.0
112
0.0
122
1.0
132
0.0
 79
     0
146
0.0
1001
ACAD_NAV_VCDISPLAY
1070
     3
  0
ENDTAB
  0
TABLE
  2
LTYPE
  5
692
330
0
100
AcDbSymbolTable
 70
     6
  0
LTYPE
  5
693
330
692
100
AcDbSymbolTableRecord
100
AcDbLinetypeTableRecord
  2
ByBlock
 70
     0
  3

 72
    65
 73
     0
 40
0.0
  0
LTYPE
  5
694
330
692
100
AcDbSymbolTableRecord
100
AcDbLinetypeTableRecord
  2
ByLayer
 70
     0
  3

 72
    65
 73
     0
 40
0.0
  0
LTYPE
  5
8
330
692
100
AcDbSymbolTableRecord
100
AcDbLinetypeTableRecord
  2
Continuous
 70
     0
  3
Solid line
 72
    65
 73
     0
 40
0.0
  0
LTYPE
  5
F9
330
692
100
AcDbSymbolTableRecord
100
AcDbLinetypeTableRecord
  2
HIDDEN
 70
     0
  3
Hidden __ __ __ __ __ __ __ __ __ __ __ __ __ _
 72
    65
 73
     2
 40
9.524999999999998
 49
6.349999999999999
 74
     0
 49
-3.174999999999999
 74
     0
  0
LTYPE
  5
107
330
692
100
AcDbSymbolTableRecord
100
AcDbLinetypeTableRecord
  2
CENTER
 70
     0
  3
------ - ------ - ----
 72
    65
 73
     4
 40
10.0
 49
6.25
 74
     0
 49
-1.25
 74
     0
 49
1.25
 74
     0
 49
-1.25
 74
     0
  0
ENDTAB
  0
TABLE
  2
LAYER
  5
68F
102
{ACAD_XDICTIONARY
360
E68
102
}
330
0
100
AcDbSymbolTable
 70
    11
  0
LAYER
  5
64
102
{ACAD_XDICTIONARY
360
DF7
102
}
330
68F
100
AcDbSymbolTableRecord
100
AcDbLayerTableRecord
  2
0
 70
     0
 62
     7
  6
Continuous
370
    -3
390
5
  0
LAYER
  5
6A
102
{ACAD_XDICTIONARY
360
DF9
102
}
330
68F
100
AcDbSymbolTableRecord
100
AcDbLayerTableRecord
  2
本体
 70
     0
 62
     7
  6
Continuous
370
    13
390
5
  0
LAYER
  5
4
102
{ACAD_XDICTIONARY
360
DFB
102
}
330
68F
100
AcDbSymbolTableRecord
100
AcDbLayerTableRecord
  2
寸法線
 70
     0
 62
     2
  6
Continuous
370
     9
390
5
  0
LAYER
  5
67
102
{ACAD_XDICTIONARY
360
DFF
102
}
330
68F
100
AcDbSymbolTableRecord
100
AcDbLayerTableRecord
  2
エンボス
 70
     0
 62
     4
  6
Continuous
370
     5
390
5
  0
LAYER
  5
11
102
{ACAD_XDICTIONARY
360
E01
102
}
330
68F
100
AcDbSymbolTableRecord
100
AcDbLayerTableRecord
  2
外枠
 70
     0
 62
     7
  6
Continuous
370
    -3
390
5
  0
LAYER
  5
11E
330
68F
100
AcDbSymbolTableRecord
100
AcDbLayerTableRecord
  2
Defpoints
 70
     0
 62
     7
  6
Continuous
290
     0
370
    -3
390
5
  0
LAYER
  5
D91
102
{ACAD_XDICTIONARY
360
E05
102
}
330
68F
100
AcDbSymbolTableRecord
100
AcDbLayerTableRecord
  2
嵩上断面
 70
     0
 62
   112
  6
Continuous
370
    13
390
5
  0
LAYER
  5
D92
102
{ACAD_XDICTIONARY
360
E07
102
}
330
68F
100
AcDbSymbolTableRecord
100
AcDbLayerTableRecord
  2
ゴム
 70
     0
 62
    51
  6
Continuous
370
    13
390
5
  0
LAYER
  5
F6C
102
{ACAD_XDICTIONARY
360
F6D
102
}
330
68F
100
AcDbSymbolTableRecord
100
AcDbLayerTableRecord
  2
嵩上平面
 70
     0
 62
   112
  6
HIDDEN
370
    13
390
5
  0
ENDTAB
  0
TABLE
  2
STYLE
  5
690
330
0
100
AcDbSymbolTable
 70
     4
  0
STYLE
  5
9
330
690
100
AcDbSymbolTableRecord
100
AcDbTextStyleTableRecord
  2
Standard
 70
     0
 40
0.0
 41
1.0
 50
0.0
 71
     0
 42
2.5
  3

  4

1001
ACAD
1000
MS Gothic
1071
    32817
  0
ENDTAB
  0
TABLE
  2
VIEW
  5
695
330
0
100
AcDbSymbolTable
 70
     0
  0
ENDTAB
  0
TABLE
  2
UCS
  5
696
330
0
100
AcDbSymbolTable
 70
     0
  0
ENDTAB
  0
TABLE
  2
APPID
  5
699
330
0
100
AcDbSymbolTable
 70
     5
  0
APPID
  5
A
330
699
100
AcDbSymbolTableRecord
100
AcDbRegAppTableRecord
  2
ACAD
 70
     0
  0
APPID
  5
E09
330
699
100
AcDbSymbolTableRecord
100
AcDbRegAppTableRecord
  2
ACAD_NAV_VCDISPLAY
 70
     0
  0
APPID
  5
E4A
330
699
100
AcDbSymbolTableRecord
100
AcDbRegAppTableRecord
  2
ACAD_MLEADERVER
 70
     0
  0
APPID
  5
EC0
330
699
100
AcDbSymbolTableRecord
100
AcDbRegAppTableRecord
  2
ACAD_EXEMPT_FROM_CAD_STANDARDS
 70
     0
  0
APPID
  5
1041
330
699
100
AcDbSymbolTableRecord
100
AcDbRegAppTableRecord
  2
AcLayerTools
 70
     0
  0
ENDTAB
  0
TABLE
  2
DIMSTYLE
  5
69A
330
0
100
AcDbSymbolTable
 70
     2
100
AcDbDimStyleTable
 71
     1
340
10F
  0
DIMSTYLE
105
10F
102
{ACAD_REACTORS
330
10E
330
142
330
14F
330
310
330
321
330
330
330
33D
330
6EC
330
BA0
330
EFE
102
}
330
69A
100
AcDbSymbolTableRecord
100
AcDbDimStyleTableRecord
  2
ISO-25
 70
     0
 40
10.0
 41
1.5
 42
2.0
 43
3.75
 44
1.5
 73
     0
 74
     0
 77
     1
 78
     8
140
3.0
141
2.5
143
0.03937007874016
147
0.5
171
     3
172
     1
271
     2
272
     2
274
     3
283
     0
284
     8
289
     0
340
9
341
110
342
110
  0
DIMSTYLE
105
D93
330
69A
100
AcDbSymbolTableRecord
100
AcDbDimStyleTableRecord
  2
Standard
 70
     0
340
9
  0
ENDTAB
  0
TABLE
  2
BLOCK_RECORD
  5
1
330
0
100
AcDbSymbolTable
 70
    31
  0
BLOCK_RECORD
  5
2
102
{ACAD_XDICTIONARY
360
67D
102
}
330
1
100
AcDbSymbolTableRecord
100
AcDbBlockTableRecord
  2
*Model_Space
340
681
  0
BLOCK_RECORD
  5
683
102
{ACAD_XDICTIONARY
360
684
102
}
330
1
100
AcDbSymbolTableRecord
100
AcDbBlockTableRecord
  2
*Paper_Space
340
688
  0
BLOCK_RECORD
  5
689
102
{ACAD_XDICTIONARY
360
68A
102
}
330
1
100
AcDbSymbolTableRecord
100
AcDbBlockTableRecord
  2
*Paper_Space0
340
68E
  0
BLOCK_RECORD
  5
110
330
1
100
AcDbSymbolTableRecord
100
AcDbBlockTableRecord
  2
_Open30
340
0
102
{BLKREFS
331
ED4
331
ED5
331
EDD
331
EDE
331
EEF
331
EF0
331
F10
331
F11
331
F1C
331
F1D
331
F30
331
F31
331
F39
331
F3A
331
F44
331
F45
331
10EE
331
10EF
331
10F7
331
10F8
102
}
  0
BLOCK_RECORD
  5
65
330
1
100
AcDbSymbolTableRecord
100
AcDbBlockTableRecord
  2
GIB詳細
340
0
102
{BLKREFS
331
63
102
}
1001
ACAD
1000
DesignCenter Data
1002
{
1070
     1
1070
     4
1002
}
  0
BLOCK_RECORD
  5
104
330
1
100
AcDbSymbolTableRecord
100
AcDbBlockTableRecord
  2
TB8
340
0
102
{BLKREFS
331
103
331
10C
331
10D
331
238
331
6E8
331
6E9
331
6EA
331
6EB
102
}
1001
ACAD
1000
DesignCenter Data
1002
{
1070
     1
1070
     4
1002
}
  0
BLOCK_RECORD
  5
66B
330
1
100
AcDbSymbolTableRecord
100
AcDbBlockTableRecord
  2
平ゴムパッキン
340
0
102
{BLKREFS
331
66A
331
F6A
102
}
  0
BLOCK_RECORD
  5
116
330
1
100
AcDbSymbolTableRecord
100
AcDbBlockTableRecord
  2
*D5
340
0
  0
BLOCK_RECORD
  5
143
330
1
100
AcDbSymbolTableRecord
100
AcDbBlockTableRecord
  2
*D6
340
0
  0
BLOCK_RECORD
  5
150
330
1
100
AcDbSymbolTableRecord
100
AcDbBlockTableRecord
  2
*D7
340
0
  0
BLOCK_RECORD
  5
311
330
1
100
AcDbSymbolTableRecord
100
AcDbBlockTableRecord
  2
*D8
340
0
  0
BLOCK_RECORD
  5
322
330
1
100
AcDbSymbolTableRecord
100
AcDbBlockTableRecord
  2
*D9
340
0
  0
BLOCK_RECORD
  5
331
330
1
100
AcDbSymbolTableRecord
100
AcDbBlockTableRecord
  2
*D10
340
0
  0
BLOCK_RECORD
  5
33E
330
1
100
AcDbSymbolTableRecord
100
AcDbBlockTableRecord
  2
*D11
340
0
  0
BLOCK_RECORD
  5
6ED
330
1
100
AcDbSymbolTableRecord
100
AcDbBlockTableRecord
  2
*D12
340
0
  0
BLOCK_RECORD
  5
BA1
330
1
100
AcDbSymbolTableRecord
100
AcDbBlockTableRecord
  2
*D22
340
0
  0
BLOCK_RECORD
  5
D81
330
1
100
AcDbSymbolTableRecord
100
AcDbBlockTableRecord
  2
清水
340
0
102
{BLKREFS
331
D8F
102
}
1001
ACAD
1000
DesignCenter Data
1002
{
1070
     1
1070
     4
1002
}
  0
BLOCK_RECORD
  5
E61
102
{ACAD_XDICTIONARY
360
E62
102
}
330
1
100
AcDbSymbolTableRecord
100
AcDbBlockTableRecord
  2
鎌下
340
0
102
{BLKREFS
331
E73
102
}
1001
ACAD
1000
DesignCenter Data
1002
{
1070
     1
1070
     4
1002
}
  0
BLOCK_RECORD
  5
EFF
330
1
100
AcDbSymbolTableRecord
100
AcDbBlockTableRecord
  2
*D25
340
0
  0
BLOCK_RECORD
  5
F50
330
1
100
AcDbSymbolTableRecord
100
AcDbBlockTableRecord
  2
P-H55
340
0
102
{BLKREFS
331
F68
331
F6B
102
}
  0
BLOCK_RECORD
  5
1046
102
{ACAD_REACTORS
330
1067
102
}
330
1
100
AcDbSymbolTableRecord
100
AcDbBlockTableRecord
  2
*U27
340
0
102
{BLKREFS
331
106B
331
106C
331
106D
331
106E
331
106F
331
1070
331
1071
331
1072
331
1073
331
1074
331
1075
331
1076
331
1077
102
}
  0
BLOCK_RECORD
  5
1049
102
{ACAD_XDICTIONARY
360
1194
102
}
102
{ACAD_REACTORS
330
1066
102
}
330
1
100
AcDbSymbolTableRecord
100
AcDbBlockTableRecord
  2
*U28
340
0
102
{BLKREFS
331
104C
102
}
  0
BLOCK_RECORD
  5
1079
102
{ACAD_REACTORS
330
10D3
102
}
330
1
100
AcDbSymbolTableRecord
100
AcDbBlockTableRecord
  2
*U29
340
0
102
{BLKREFS
331
10D7
331
10D8
331
10D9
331
10DA
331
10DB
331
10DC
331
10DD
331
10DE
331
10DF
331
10E0
331
10E1
331
10E2
331
10E3
102
}
  0
BLOCK_RECORD
  5
107C
102
{ACAD_XDICTIONARY
360
1197
102
}
102
{ACAD_REACTORS
330
10D2
102
}
330
1
100
AcDbSymbolTableRecord
100
AcDbBlockTableRecord
  2
*U30
340
0
102
{BLKREFS
331
107F
102
}
  0
ENDTAB
  0
ENDSEC
  0
SECTION
  2
BLOCKS
  0
BLOCK
  5
67F
330
2
100
AcDbEntity
  8
0
100
AcDbBlockBegin
  2
*Model_Space
 70
     0
 10
0.0
 20
0.0
 30
0.0
  3
*Model_Space
  1

  0
ENDBLK
  5
680
330
2
100
AcDbEntity
  8
0
100
AcDbBlockEnd
  0
BLOCK
  5
686
330
683
100
AcDbEntity
 67
     1
  8
0
100
AcDbBlockBegin
  2
*Paper_Space
 70
     0
 10
0.0
 20
0.0
 30
0.0
  3
*Paper_Space
  1

  0
ENDBLK
  5
687
330
683
100
AcDbEntity
 67
     1
  8
0
100
AcDbBlockEnd
  0
BLOCK
  5
68C
330
689
100
AcDbEntity
 67
     1
  8
0
100
AcDbBlockBegin
  2
*Paper_Space0
 70
     0
 10
0.0
 20
0.0
 30
0.0
  3
*Paper_Space0
  1

  0
ENDBLK
  5
68D
330
689
100
AcDbEntity
 67
     1
  8
0
100
AcDbBlockEnd
  0
BLOCK
  5
114
330
110
100
AcDbEntity
  8
0
100
AcDbBlockBegin
  2
_Open30
 70
     0
 10
0.0
 20
0.0
 30
0.0
  3
_Open30
  1

  0
LINE
  5
111
330
110
100
AcDbEntity
  8
0
  6
ByBlock
 62
     0
370
    -2
100
AcDbLine
 10
-1.0
 20
0.26794919
 30
0.0
 11
0.0
 21
0.0
 31
0.0
  0
LINE
  5
112
330
110
100
AcDbEntity
  8
0
  6
ByBlock
 62
     0
370
    -2
100
AcDbLine
 10
0.0
 20
0.0
 30
0.0
 11
-1.0
 21
-0.26794919
 31
0.0
  0
LINE
  5
113
330
110
100
AcDbEntity
  8
0
  6
ByBlock
 62
     0
370
    -2
100
AcDbLine
 10
0.0
 20
0.0
 30
0.0
 11
-1.0
 21
0.0
 31
0.0
  0
ENDBLK
  5
115
330
110
100
AcDbEntity
  8
0
100
AcDbBlockEnd
  0
BLOCK
  5
A9
330
65
100
AcDbEntity
  8
0
100
AcDbBlockBegin
  2
GIB詳細
 70
     0
 10
0.0
 20
0.0
 30
0.0
  3
GIB詳細
  1

  0
LINE
  5
66
330
65
100
AcDbEntity
  8
エンボス
  6
Continuous
370
     0
100
AcDbLine
 10
26.66967878750091
 20
-77.78386766485943
 30
0.0
 11
26.66967878750109
 21
-100.7518676648589
 31
0.0
  0
LINE
  5
68
330
65
100
AcDbEntity
  8
エンボス
  6
Continuous
370
     0
100
AcDbLine
 10
20.62167878750051
 20
-97.43986766485926
 30
0.0
 11
20.62167878750057
 21
-100.7518676648589
 31
0.0
  0
LINE
  5
69
330
65
100
AcDbEntity
  8
本体
370
     0
100
AcDbLine
 10
37.90167878750151
 20
79.24813233514118
 30
0.0
 11
37.90167878750151
 21
-100.7518676648589
 31
0.0
  0
LINE
  5
6B
330
65
100
AcDbEntity
  8
エンボス
370
     0
100
AcDbLine
 10
26.66967878750091
 20
38.64013233514075
 30
0.0
 11
26.66967878750091
 21
12.93613233514055
 31
0.0
  0
LINE
  5
6C
330
65
100
AcDbEntity
  8
エンボス
370
     0
100
AcDbLine
 10
26.66967878750091
 20
40.15213233514034
 30
0.0
 11
26.66967878750091
 21
12.93613233514055
 31
0.0
  0
LINE
  5
6D
330
65
100
AcDbEntity
  8
エンボス
370
     0
100
AcDbLine
 10
20.62167878750051
 20
59.80813233514115
 30
0.0
 11
20.62167878750051
 21
32.59213233514036
 31
0.0
  0
LINE
  5
6E
330
65
100
AcDbEntity
  8
エンボス
  6
Continuous
370
     0
100
AcDbLine
 10
8.525678787500737
 20
26.54413233514095
 30
0.0
 11
20.62167878750051
 21
20.49613233514056
 31
0.0
  0
LINE
  5
6F
330
65
100
AcDbEntity
  8
エンボス
  6
Continuous
370
     0
100
AcDbLine
 10
8.525678787500737
 20
26.54413233514095
 30
0.0
 11
20.62167878750051
 21
32.59213233514036
 31
0.0
  0
LINE
  5
70
330
65
100
AcDbEntity
  8
エンボス
  6
Continuous
370
     0
100
AcDbLine
 10
8.525678787500737
 20
-91.39186766485886
 30
0.0
 11
20.62167878750051
 21
-85.34386766485942
 31
0.0
  0
LINE
  5
71
330
65
100
AcDbEntity
  8
エンボス
  6
Continuous
370
     0
100
AcDbLine
 10
8.525678787500737
 20
-91.39186766485886
 30
0.0
 11
20.62167878750051
 21
-97.43986766485926
 31
0.0
  0
LINE
  5
72
330
65
100
AcDbEntity
  8
エンボス
  6
Continuous
370
     0
100
AcDbLine
 10
8.525678787500737
 20
-52.07986766485925
 30
0.0
 11
20.62167878750051
 21
-58.12786766485965
 31
0.0
  0
LINE
  5
73
330
65
100
AcDbEntity
  8
エンボス
  6
Continuous
370
     0
100
AcDbLine
 10
8.525678787500737
 20
-52.07986766485925
 30
0.0
 11
20.62167878750051
 21
-46.03186766485886
 31
0.0
  0
LINE
  5
74
330
65
100
AcDbEntity
  8
エンボス
  6
Continuous
370
     0
100
AcDbLine
 10
8.525678787500737
 20
-12.76786766485964
 30
0.0
 11
20.62167878750051
 21
-6.719867664859251
 31
0.0
  0
LINE
  5
75
330
65
100
AcDbEntity
  8
エンボス
  6
Continuous
370
     0
100
AcDbLine
 10
8.525678787500737
 20
-12.76786766485964
 30
0.0
 11
20.62167878750051
 21
-18.81586766485905
 31
0.0
  0
LINE
  5
76
330
65
100
AcDbEntity
  8
エンボス
  6
Continuous
370
     0
100
AcDbLine
 10
38.76567878750075
 20
6.888132335141136
 30
0.0
 11
26.66967878750091
 21
12.93613233514055
 31
0.0
  0
LINE
  5
77
330
65
100
AcDbEntity
  8
エンボス
  6
Continuous
370
     0
100
AcDbLine
 10
38.76567878750075
 20
-32.42386766485945
 30
0.0
 11
26.66967878750091
 21
-26.37586766485906
 31
0.0
  0
LINE
  5
78
330
65
100
AcDbEntity
  8
エンボス
  6
Continuous
370
     0
100
AcDbLine
 10
38.76567878750075
 20
-32.42386766485945
 30
0.0
 11
26.66967878750091
 21
-26.37586766485906
 31
0.0
  0
LINE
  5
79
330
65
100
AcDbEntity
  8
エンボス
  6
Continuous
370
     0
100
AcDbLine
 10
38.76567878750075
 20
-71.73586766485906
 30
0.0
 11
26.66967878750091
 21
-77.78386766485943
 31
0.0
  0
LINE
  5
7A
330
65
100
AcDbEntity
  8
エンボス
  6
Continuous
370
     0
100
AcDbLine
 10
38.76567878750075
 20
-71.73586766485906
 30
0.0
 11
26.66967878750091
 21
-77.78386766485943
 31
0.0
  0
LINE
  5
7B
330
65
100
AcDbEntity
  8
エンボス
  6
Continuous
370
     0
100
AcDbLine
 10
38.76567878750075
 20
-71.73586766485906
 30
0.0
 11
26.66967878750091
 21
-77.78386766485943
 31
0.0
  0
LINE
  5
7C
330
65
100
AcDbEntity
  8
エンボス
  6
Continuous
370
     0
100
AcDbLine
 10
38.76567878750075
 20
-32.42386766485945
 30
0.0
 11
26.66967878750091
 21
-38.47186766485886
 31
0.0
  0
LINE
  5
7D
330
65
100
AcDbEntity
  8
エンボス
  6
Continuous
370
     0
100
AcDbLine
 10
38.76567878750075
 20
-32.42386766485945
 30
0.0
 11
26.66967878750091
 21
-38.47186766485886
 31
0.0
  0
LINE
  5
7E
330
65
100
AcDbEntity
  8
エンボス
  6
Continuous
370
     0
100
AcDbLine
 10
38.76567878750075
 20
-71.73586766485906
 30
0.0
 11
26.66967878750091
 21
-65.68786766485965
 31
0.0
  0
LINE
  5
7F
330
65
100
AcDbEntity
  8
エンボス
  6
Continuous
370
     0
100
AcDbLine
 10
38.76567878750075
 20
-71.73586766485906
 30
0.0
 11
26.66967878750091
 21
-65.68786766485965
 31
0.0
  0
LINE
  5
80
330
65
100
AcDbEntity
  8
エンボス
  6
Continuous
370
     0
100
AcDbLine
 10
38.76567878750075
 20
-71.73586766485906
 30
0.0
 11
26.66967878750091
 21
-65.68786766485965
 31
0.0
  0
LINE
  5
81
330
65
100
AcDbEntity
  8
エンボス
  6
Continuous
370
     0
100
AcDbLine
 10
26.66967878750091
 20
-38.47186766485886
 30
0.0
 11
26.66967878750091
 21
-65.68786766485965
 31
0.0
  0
LINE
  5
82
330
65
100
AcDbEntity
  8
エンボス
  6
Continuous
370
     0
100
AcDbLine
 10
26.66967878750091
 20
0.8401323351407512
 30
0.0
 11
26.66967878750091
 21
-26.37586766485906
 31
0.0
  0
LINE
  5
83
330
65
100
AcDbEntity
  8
エンボス
  6
Continuous
370
     0
100
AcDbLine
 10
20.62167878750051
 20
-18.81586766485905
 30
0.0
 11
20.62167878750051
 21
-46.03186766485886
 31
0.0
  0
LINE
  5
84
330
65
100
AcDbEntity
  8
エンボス
  6
Continuous
370
     0
100
AcDbLine
 10
20.62167878750051
 20
-58.12786766485965
 30
0.0
 11
20.62167878750051
 21
-85.34386766485942
 31
0.0
  0
LINE
  5
85
330
65
100
AcDbEntity
  8
エンボス
  6
Continuous
370
     0
100
AcDbLine
 10
20.62167878750051
 20
20.49613233514056
 30
0.0
 11
20.62167878750051
 21
-6.719867664859251
 31
0.0
  0
LINE
  5
86
330
65
100
AcDbEntity
  8
エンボス
  6
Continuous
370
     0
100
AcDbLine
 10
38.76567878750075
 20
6.888132335141136
 30
0.0
 11
26.66967878750091
 21
0.8401323351407512
 31
0.0
  0
LINE
  5
87
330
65
100
AcDbEntity
  8
エンボス
  6
Continuous
370
     0
100
AcDbLine
 10
8.525678787500737
 20
73.20013233514075
 30
0.0
 11
20.62167878750051
 21
79.24813233514118
 31
0.0
  0
LINE
  5
88
330
65
100
AcDbEntity
  8
エンボス
  6
Continuous
370
     0
100
AcDbLine
 10
8.525678787500737
 20
73.20013233514075
 30
0.0
 11
20.62167878750051
 21
59.80813233514115
 31
0.0
  0
LINE
  5
89
330
65
100
AcDbEntity
  8
エンボス
370
     0
100
AcDbLine
 10
26.66967878750091
 20
79.24813233514118
 30
0.0
 11
26.66967878750091
 21
52.24813233514115
 31
0.0
  0
LINE
  5
8A
330
65
100
AcDbEntity
  8
エンボス
  6
Continuous
370
     0
100
AcDbLine
 10
38.76567878750075
 20
46.20013233514074
 30
0.0
 11
26.66967878750091
 21
52.24813233514115
 31
0.0
  0
LINE
  5
8B
330
65
100
AcDbEntity
  8
エンボス
  6
Continuous
370
     0
100
AcDbLine
 10
38.76567878750075
 20
46.20013233514074
 30
0.0
 11
26.66967878750091
 21
40.15213233514034
 31
0.0
  0
LINE
  5
8C
330
65
100
AcDbEntity
  8
本体
370
     0
100
AcDbLine
 10
7.6616787875015
 20
79.24813233514118
 30
0.0
 11
7.6616787875015
 21
-100.7518676648589
 31
0.0
  0
MTEXT
  5
8D
330
65
100
AcDbEntity
  8
本体
  6
Continuous
370
     0
100
AcDbMText
 10
-96.91195000051369
 20
158.2682376554469
 30
0.0
 40
30.0
 41
252.8401
 71
     1
 72
     5
  1
GIB形状詳細
 73
     1
 44
1.0
1001
ACAD
1000
MTEXTBEGIN
1070
    73
1070
     1
1070
    44
1040
1.0
1070
    74
1070
     0
1000
MTEXTEND
  0
MTEXT
  5
8E
330
65
100
AcDbEntity
  8
寸法線
  6
Continuous
100
AcDbMText
 10
-147.3028652710904
 20
1772.180188660315
 30
0.0
 40
20.0
 41
17.2146
 71
     7
 72
     1
  1

 73
     1
 44
1.0
1001
ACAD
1000
MTEXTBEGIN
1070
    73
1070
     1
1070
    44
1040
1.0
1070
    74
1070
     0
1000
MTEXTEND
  0
MTEXT
  5
8F
330
65
100
AcDbEntity
  8
寸法線
  6
Continuous
100
AcDbMText
 10
125.7829597280838
 20
3773.683923873501
 30
0.0
 40
30.0
 41
17.2146
 71
     7
 72
     1
  1

 73
     1
 44
1.0
1001
ACAD
1000
MTEXTBEGIN
1070
    73
1070
     1
1070
    44
1040
1.0
1070
    74
1070
     0
1000
MTEXTEND
  0
MTEXT
  5
90
330
65
100
AcDbEntity
  8
寸法線
  6
Continuous
100
AcDbMText
 10
-609.4758544225992
 20
3746.116575025764
 30
0.0
 40
20.0
 41
17.2146
 71
     7
 72
     1
  1

 73
     1
 44
1.0
1001
ACAD
1000
MTEXTBEGIN
1070
    73
1070
     1
1070
    44
1040
1.0
1070
    74
1070
     0
1000
MTEXTEND
  0
MTEXT
  5
91
330
65
100
AcDbEntity
  8
寸法線
  6
Continuous
100
AcDbMText
 10
-147.3028652710904
 20
1754.680188660315
 30
0.0
 40
20.0
 41
17.2146
 71
     7
 72
     1
  1

 73
     1
 44
1.0
1001
ACAD
1000
MTEXTBEGIN
1070
    73
1070
     1
1070
    44
1040
1.0
1070
    74
1070
     0
1000
MTEXTEND
  0
MTEXT
  5
92
330
65
100
AcDbEntity
  8
寸法線
  6
Continuous
100
AcDbMText
 10
125.7829597280838
 20
3756.183923873501
 30
0.0
 40
30.0
 41
17.2146
 71
     7
 72
     1
  1

 73
     1
 44
1.0
1001
ACAD
1000
MTEXTBEGIN
1070
    73
1070
     1
1070
    44
1040
1.0
1070
    74
1070
     0
1000
MTEXTEND
  0
MTEXT
  5
93
330
65
100
AcDbEntity
  8
寸法線
  6
Continuous
100
AcDbMText
 10
-609.4758544225992
 20
3728.616575025763
 30
0.0
 40
20.0
 41
17.2146
 71
     7
 72
     1
  1

 73
     1
 44
1.0
1001
ACAD
1000
MTEXTBEGIN
1070
    73
1070
     1
1070
    44
1040
1.0
1070
    74
1070
     0
1000
MTEXTEND
  0
MTEXT
  5
94
330
65
100
AcDbEntity
  8
寸法線
  6
Continuous
100
AcDbMText
 10
-147.3028652710904
 20
1704.680188660315
 30
0.0
 40
20.0
 41
17.2146
 71
     7
 72
     1
  1

 73
     1
 44
1.0
1001
ACAD
1000
MTEXTBEGIN
1070
    73
1070
     1
1070
    44
1040
1.0
1070
    74
1070
     0
1000
MTEXTEND
  0
MTEXT
  5
95
330
65
100
AcDbEntity
  8
寸法線
  6
Continuous
100
AcDbMText
 10
125.7829597280838
 20
3706.183923873501
 30
0.0
 40
30.0
 41
17.2146
 71
     7
 72
     1
  1

 73
     1
 44
1.0
1001
ACAD
1000
MTEXTBEGIN
1070
    73
1070
     1
1070
    44
1040
1.0
1070
    74
1070
     0
1000
MTEXTEND
  0
MTEXT
  5
96
330
65
100
AcDbEntity
  8
寸法線
  6
Continuous
100
AcDbMText
 10
-609.4758544225992
 20
3678.616575025763
 30
0.0
 40
20.0
 41
17.2146
 71
     7
 72
     1
  1

 73
     1
 44
1.0
1001
ACAD
1000
MTEXTBEGIN
1070
    73
1070
     1
1070
    44
1040
1.0
1070
    74
1070
     0
1000
MTEXTEND
  0
MTEXT
  5
97
330
65
100
AcDbEntity
  8
寸法線
  6
Continuous
100
AcDbMText
 10
-147.3028652710904
 20
1654.680188660315
 30
0.0
 40
20.0
 41
17.2146
 71
     7
 72
     1
  1

 73
     1
 44
1.0
1001
ACAD
1000
MTEXTBEGIN
1070
    73
1070
     1
1070
    44
1040
1.0
1070
    74
1070
     0
1000
MTEXTEND
  0
MTEXT
  5
98
330
65
100
AcDbEntity
  8
寸法線
  6
Continuous
100
AcDbMText
 10
125.7829597280838
 20
3656.183923873501
 30
0.0
 40
30.0
 41
17.2146
 71
     7
 72
     1
  1

 73
     1
 44
1.0
1001
ACAD
1000
MTEXTBEGIN
1070
    73
1070
     1
1070
    44
1040
1.0
1070
    74
1070
     0
1000
MTEXTEND
  0
MTEXT
  5
99
330
65
100
AcDbEntity
  8
寸法線
  6
Continuous
100
AcDbMText
 10
-609.4758544225992
 20
3628.616575025763
 30
0.0
 40
20.0
 41
17.2146
 71
     7
 72
     1
  1

 73
     1
 44
1.0
1001
ACAD
1000
MTEXTBEGIN
1070
    73
1070
     1
1070
    44
1040
1.0
1070
    74
1070
     0
1000
MTEXTEND
  0
MTEXT
  5
9A
330
65
100
AcDbEntity
  8
寸法線
  6
Continuous
100
AcDbMText
 10
-147.3028652710904
 20
1604.680188660315
 30
0.0
 40
20.0
 41
17.2146
 71
     7
 72
     1
  1

 73
     1
 44
1.0
1001
ACAD
1000
MTEXTBEGIN
1070
    73
1070
     1
1070
    44
1040
1.0
1070
    74
1070
     0
1000
MTEXTEND
  0
MTEXT
  5
9B
330
65
100
AcDbEntity
  8
寸法線
  6
Continuous
100
AcDbMText
 10
125.7829597280838
 20
3606.183923873501
 30
0.0
 40
30.0
 41
17.2146
 71
     7
 72
     1
  1

 73
     1
 44
1.0
1001
ACAD
1000
MTEXTBEGIN
1070
    73
1070
     1
1070
    44
1040
1.0
1070
    74
1070
     0
1000
MTEXTEND
  0
MTEXT
  5
9C
330
65
100
AcDbEntity
  8
寸法線
  6
Continuous
100
AcDbMText
 10
-609.4758544225992
 20
3578.616575025763
 30
0.0
 40
20.0
 41
17.2146
 71
     7
 72
     1
  1

 73
     1
 44
1.0
1001
ACAD
1000
MTEXTBEGIN
1070
    73
1070
     1
1070
    44
1040
1.0
1070
    74
1070
     0
1000
MTEXTEND
  0
MTEXT
  5
9D
330
65
100
AcDbEntity
  8
寸法線
  6
Continuous
100
AcDbMText
 10
-147.3028652710904
 20
1554.680188660315
 30
0.0
 40
20.0
 41
17.2146
 71
     7
 72
     1
  1

 73
     1
 44
1.0
1001
ACAD
1000
MTEXTBEGIN
1070
    73
1070
     1
1070
    44
1040
1.0
1070
    74
1070
     0
1000
MTEXTEND
  0
MTEXT
  5
9E
330
65
100
AcDbEntity
  8
寸法線
  6
Continuous
100
AcDbMText
 10
125.7829597280838
 20
3556.183923873501
 30
0.0
 40
30.0
 41
17.2146
 71
     7
 72
     1
  1

 73
     1
 44
1.0
1001
ACAD
1000
MTEXTBEGIN
1070
    73
1070
     1
1070
    44
1040
1.0
1070
    74
1070
     0
1000
MTEXTEND
  0
MTEXT
  5
9F
330
65
100
AcDbEntity
  8
寸法線
  6
Continuous
100
AcDbMText
 10
-609.4758544225992
 20
3528.616575025763
 30
0.0
 40
20.0
 41
17.2146
 71
     7
 72
     1
  1

 73
     1
 44
1.0
1001
ACAD
1000
MTEXTBEGIN
1070
    73
1070
     1
1070
    44
1040
1.0
1070
    74
1070
     0
1000
MTEXTEND
  0
MTEXT
  5
A0
330
65
100
AcDbEntity
  8
寸法線
  6
Continuous
100
AcDbMText
 10
-147.3028652710904
 20
1504.680188660315
 30
0.0
 40
20.0
 41
17.2146
 71
     7
 72
     1
  1

 73
     1
 44
1.0
1001
ACAD
1000
MTEXTBEGIN
1070
    73
1070
     1
1070
    44
1040
1.0
1070
    74
1070
     0
1000
MTEXTEND
  0
MTEXT
  5
A1
330
65
100
AcDbEntity
  8
寸法線
  6
Continuous
100
AcDbMText
 10
125.7829597280838
 20
3506.183923873501
 30
0.0
 40
30.0
 41
17.2146
 71
     7
 72
     1
  1

 73
     1
 44
1.0
1001
ACAD
1000
MTEXTBEGIN
1070
    73
1070
     1
1070
    44
1040
1.0
1070
    74
1070
     0
1000
MTEXTEND
  0
MTEXT
  5
A2
330
65
100
AcDbEntity
  8
寸法線
  6
Continuous
100
AcDbMText
 10
-609.4758544225992
 20
3478.616575025763
 30
0.0
 40
20.0
 41
17.2146
 71
     7
 72
     1
  1

 73
     1
 44
1.0
1001
ACAD
1000
MTEXTBEGIN
1070
    73
1070
     1
1070
    44
1040
1.0
1070
    74
1070
     0
1000
MTEXTEND
  0
MTEXT
  5
A3
330
65
100
AcDbEntity
  8
寸法線
  6
Continuous
100
AcDbMText
 10
-147.3028652710904
 20
1454.680188660315
 30
0.0
 40
20.0
 41
17.2146
 71
     7
 72
     1
  1

 73
     1
 44
1.0
1001
ACAD
1000
MTEXTBEGIN
1070
    73
1070
     1
1070
    44
1040
1.0
1070
    74
1070
     0
1000
MTEXTEND
  0
MTEXT
  5
A4
330
65
100
AcDbEntity
  8
寸法線
  6
Continuous
100
AcDbMText
 10
125.7829597280838
 20
3456.183923873501
 30
0.0
 40
30.0
 41
17.2146
 71
     7
 72
     1
  1

 73
     1
 44
1.0
1001
ACAD
1000
MTEXTBEGIN
1070
    73
1070
     1
1070
    44
1040
1.0
1070
    74
1070
     0
1000
MTEXTEND
  0
MTEXT
  5
A5
330
65
100
AcDbEntity
  8
寸法線
  6
Continuous
100
AcDbMText
 10
-609.4758544225992
 20
3428.616575025763
 30
0.0
 40
20.0
 41
17.2146
 71
     7
 72
     1
  1

 73
     1
 44
1.0
1001
ACAD
1000
MTEXTBEGIN
1070
    73
1070
     1
1070
    44
1040
1.0
1070
    74
1070
     0
1000
MTEXTEND
  0
LWPOLYLINE
  5
A6
330
65
100
AcDbEntity
  8
本体
  6
Continuous
100
AcDbPolyline
 90
        4
 70
     1
 43
0.0
 10
-139.6145379512674
 20
168.6157088891093
 10
194.701175139303
 20
168.6157088891093
 10
194.701175139303
 20
-117.6274822929807
 10
-139.6145379512674
 20
-117.6274822929807
  0
HATCH
  5
A7
330
65
100
AcDbEntity
  8
エンボス
  6
Continuous
100
AcDbHatch
 10
0.0
 20
0.0
 30
0.0
210
0.0
220
0.0
230
1.0
  2
ANSI31
 70
     0
 71
     0
 91
        1
 92
        7
 72
     0
 73
     1
 93
       34
 10
26.66967878750092
 20
40.15213233514035
 10
37.90167878750151
 20
45.76813233514108
 10
37.90167878750151
 20
46.63213233514041
 10
26.66967878750092
 20
52.24813233514115
 10
26.66967878750091
 20
79.24813233514116
 10
20.62167878750047
 20
79.24813233514116
 10
8.525678787500744
 20
73.20013233514076
 10
20.62167878750051
 20
59.80813233514115
 10
20.62167878750051
 20
32.59213233514036
 10
8.525678787500737
 20
26.54413233514094
 10
20.62167878750051
 20
20.49613233514056
 10
20.62167878750051
 20
-6.719867664859251
 10
8.525678787500737
 20
-12.76786766485964
 10
20.62167878750051
 20
-18.81586766485905
 10
20.62167878750051
 20
-46.03186766485887
 10
8.525678787500737
 20
-52.07986766485925
 10
20.62167878750051
 20
-58.12786766485965
 10
20.62167878750051
 20
-85.34386766485944
 10
8.525678787500737
 20
-91.39186766485885
 10
20.62167878750051
 20
-97.43986766485924
 10
20.62167878750057
 20
-100.7518676648588
 10
26.66967878750109
 20
-100.7518676648589
 10
26.66967878750091
 20
-77.78386766485944
 10
37.90167878750151
 20
-72.16786766485872
 10
37.90167878750151
 20
-71.30386766485948
 10
26.66967878750091
 20
-65.68786766485963
 10
26.66967878750091
 20
-38.47186766485886
 10
37.90167878750151
 20
-32.85586766485902
 10
37.90167878750151
 20
-31.99186766485979
 10
26.66967878750091
 20
-26.37586766485906
 10
26.66967878750091
 20
0.8401323351407494
 10
37.90167878750151
 20
6.456132335141482
 10
37.90167878750151
 20
7.320132335140719
 10
26.66967878750091
 20
12.93613233514056
 97
        0
 75
     0
 76
     1
 52
0.0
 41
0.5
 77
     0
 78
     1
 53
45.0
 43
8.525678787500737
 44
-12.76786766485964
 45
-1.122532015133643
 46
1.122532015133644
 79
     0
 47
0.5074757335946297
 98
        1
 10
23.11907519037527
 20
30.63971558616095
  0
MTEXT
  5
A8
330
65
100
AcDbEntity
  8
本体
  6
Continuous
100
AcDbMText
 10
-79.8847425412946
 20
110.9530386434795
 30
0.0
 40
15.0
 41
230.6957
 71
     1
 72
     5
  1
※塗りつぶし部分突起
 73
     1
 44
1.0
1001
ACAD
1000
MTEXTBEGIN
1070
    73
1070
     1
1070
    44
1040
1.0
1070
    74
1070
     0
1000
MTEXTEND
  0
ENDBLK
  5
AA
330
65
100
AcDbEntity
  8
0
100
AcDbBlockEnd
  0
BLOCK
  5
10A
330
104
100
AcDbEntity
  8
0
100
AcDbBlockBegin
  2
TB8
 70
     0
 10
0.0
 20
0.0
 30
0.0
  3
TB8
  1

  0
MTEXT
  5
105
330
104
100
AcDbEntity
  8
寸法線
  6
Continuous
100
AcDbMText
 10
917.3216494432054
 20
235.349302881973
 30
0.0
 40
20.0
 41
17.2146
 71
     7
 72
     1
  1

 73
     1
 44
1.0
1001
ACAD
1000
MTEXTBEGIN
1070
    73
1070
     1
1070
    44
1040
1.0
1070
    74
1070
     0
1000
MTEXTEND
  0
LINE
  5
106
330
104
100
AcDbEntity
  8
本体
  6
CENTER
 62
     1
 48
0.3
100
AcDbLine
 10
10.0
 20
0.0
 30
0.0
 11
-2.0
 21
0.0
 31
0.0
  0
LINE
  5
108
330
104
100
AcDbEntity
  8
本体
  6
CENTER
 62
     1
 48
0.3
100
AcDbLine
 10
4.0
 20
6.0
 30
0.0
 11
4.0
 21
-6.0
 31
0.0
  0
CIRCLE
  5
109
330
104
100
AcDbEntity
  8
本体
  6
Continuous
 62
     0
100
AcDbCircle
 10
4.0
 20
0.0
 30
0.0
 40
4.0
  0
ENDBLK
  5
10B
330
104
100
AcDbEntity
  8
0
100
AcDbBlockEnd
  0
BLOCK
  5
67A
330
66B
100
AcDbEntity
  8
0
100
AcDbBlockBegin
  2
平ゴムパッキン
 70
     0
 10
0.0
 20
0.0
 30
0.0
  3
平ゴムパッキン
  1

  0
LINE
  5
D94
330
66B
100
AcDbEntity
  8
ゴム
100
AcDbLine
 10
3.000005000000001
 20
-0.0000109999999998
 30
0.0
 11
3.000005000000001
 21
-40.000011
 31
0.0
  0
LINE
  5
D95
330
66B
100
AcDbEntity
  8
ゴム
100
AcDbLine
 10
3.000005000000001
 20
-0.0000109999999998
 30
0.0
 11
8.000005000000001
 21
-0.0000109999999998
 31
0.0
  0
LINE
  5
D96
330
66B
100
AcDbEntity
  8
ゴム
100
AcDbLine
 10
3.000005000000001
 20
-40.000011
 30
0.0
 11
8.000005000000001
 21
-40.000011
 31
0.0
  0
LINE
  5
D97
330
66B
100
AcDbEntity
  8
ゴム
100
AcDbLine
 10
8.000005000000001
 20
-0.0000109999999998
 30
0.0
 11
8.000005000000001
 21
-10.000011
 31
0.0
  0
LINE
  5
D98
330
66B
100
AcDbEntity
  8
ゴム
100
AcDbLine
 10
8.000005000000001
 20
-30.000011
 30
0.0
 11
8.000005000000001
 21
-40.000011
 31
0.0
  0
LINE
  5
D99
330
66B
100
AcDbEntity
  8
ゴム
100
AcDbLine
 10
8.000005000000001
 20
-10.000011
 30
0.0
 11
8.000005000000001
 21
-30.000011
 31
0.0
  0
LINE
  5
D9A
330
66B
100
AcDbEntity
  8
ゴム
100
AcDbLine
 10
5.874546000000002
 20
-40.000011
 30
0.0
 11
8.000005000000001
 21
-36.318608
 31
0.0
  0
LINE
  5
D9B
330
66B
100
AcDbEntity
  8
ゴム
100
AcDbLine
 10
3.000005000000001
 20
-38.978862
 30
0.0
 11
8.000005000000001
 21
-30.318608
 31
0.0
  0
LINE
  5
D9C
330
66B
100
AcDbEntity
  8
ゴム
100
AcDbLine
 10
3.000005000000001
 20
-32.978862
 30
0.0
 11
8.000005000000001
 21
-24.31860866666666
 31
0.0
  0
LINE
  5
D9D
330
66B
100
AcDbEntity
  8
ゴム
100
AcDbLine
 10
3.000005000000001
 20
-26.978862
 30
0.0
 11
8.000005000000001
 21
-18.31860866666667
 31
0.0
  0
LINE
  5
D9E
330
66B
100
AcDbEntity
  8
ゴム
100
AcDbLine
 10
3.000005000000001
 20
-20.978862
 30
0.0
 11
8.000005000000001
 21
-12.31860866666666
 31
0.0
  0
LINE
  5
D9F
330
66B
100
AcDbEntity
  8
ゴム
100
AcDbLine
 10
3.000005000000001
 20
-14.978862
 30
0.0
 11
8.000005000000001
 21
-6.318608000000001
 31
0.0
  0
LINE
  5
DA0
330
66B
100
AcDbEntity
  8
ゴム
100
AcDbLine
 10
3.000005000000001
 20
-8.978861999999999
 30
0.0
 11
8.000005000000001
 21
-0.3186080000000002
 31
0.0
  0
LINE
  5
DA1
330
66B
100
AcDbEntity
  8
ゴム
100
AcDbLine
 10
3.000005000000001
 20
-2.978861999999999
 30
0.0
 11
4.719844999999999
 21
-0.0000109999999998
 31
0.0
  0
ENDBLK
  5
67B
330
66B
100
AcDbEntity
  8
0
100
AcDbBlockEnd
  0
BLOCK
  5
121
330
116
100
AcDbEntity
  8
0
 48
3.0
100
AcDbBlockBegin
  2
*D5
 70
     1
 10
0.0
 20
0.0
 30
0.0
  3
*D5
  1

  0
LINE
  5
EDA
330
116
100
AcDbEntity
  8
寸法線
  6
Continuous
 62
     0
370
    -2
100
AcDbLine
 10
1889.936963014385
 20
1674.570393950034
 30
0.0
 11
1734.936963014385
 21
1674.570393950034
 31
0.0
  0
LINE
  5
EDB
330
116
100
AcDbEntity
  8
寸法線
  6
Continuous
 62
     0
370
    -2
100
AcDbLine
 10
1889.936963014385
 20
1244.570393950034
 30
0.0
 11
1734.936963014385
 21
1244.570393950034
 31
0.0
  0
LINE
  5
EDC
330
116
100
AcDbEntity
  8
寸法線
  6
Continuous
 62
     0
370
    -2
100
AcDbLine
 10
1749.936963014385
 20
1659.570393950034
 30
0.0
 11
1749.936963014384
 21
1259.570393950034
 31
0.0
  0
INSERT
  5
EDD
330
116
100
AcDbEntity
  8
寸法線
  6
Continuous
 62
     0
370
    -2
100
AcDbBlockReference
  2
_Open30
 10
1749.936963014385
 20
1674.570393950034
 30
0.0
 41
15.0
 42
15.0
 43
15.0
 50
90.0
  0
INSERT
  5
EDE
330
116
100
AcDbEntity
  8
寸法線
  6
Continuous
 62
     0
370
    -2
100
AcDbBlockReference
  2
_Open30
 10
1749.936963014384
 20
1244.570393950034
 30
0.0
 41
15.0
 42
15.0
 43
15.0
 50
270.0
  0
MTEXT
  5
EDF
330
116
100
AcDbEntity
  8
寸法線
  6
Continuous
 62
     0
100
AcDbMText
 10
1729.936963014384
 20
1459.570393950034
 30
0.0
 40
30.0
 41
0.0
 71
     5
 72
     1
  1
430
 11
0.0000000000000001
 21
1.0
 31
0.0
 73
     1
 44
1.0
1001
ACAD
1000
MTEXTBEGIN
1070
    73
1070
     1
1070
    44
1040
1.0
1070
    74
1070
     0
1000
MTEXTEND
  0
POINT
  5
EE0
330
116
100
AcDbEntity
  8
Defpoints
  6
Continuous
 62
     0
100
AcDbPoint
 10
1909.936963014384
 20
1674.570393950034
 30
0.0
  0
POINT
  5
EE1
330
116
100
AcDbEntity
  8
Defpoints
  6
Continuous
 62
     0
100
AcDbPoint
 10
1909.936963014384
 20
1244.570393950034
 30
0.0
  0
POINT
  5
EE2
330
116
100
AcDbEntity
  8
Defpoints
  6
Continuous
 62
     0
100
AcDbPoint
 10
1749.936963014384
 20
1244.570393950034
 30
0.0
  0
ENDBLK
  5
122
330
116
100
AcDbEntity
  8
0
 48
3.0
100
AcDbBlockEnd
  0
BLOCK
  5
14D
330
143
100
AcDbEntity
  8
0
 48
3.0
100
AcDbBlockBegin
  2
*D6
 70
     1
 10
0.0
 20
0.0
 30
0.0
  3
*D6
  1

  0
LINE
  5
F19
330
143
100
AcDbEntity
  8
寸法線
  6
Continuous
 62
     0
370
    -2
100
AcDbLine
 10
992.007008456766
 20
740.4863152268862
 30
0.0
 11
1177.007008456766
 21
740.4863152268862
 31
0.0
  0
LINE
  5
F1A
330
143
100
AcDbEntity
  8
寸法線
  6
Continuous
 62
     0
370
    -2
100
AcDbLine
 10
989.0070084567661
 20
630.4863152268867
 30
0.0
 11
1177.007008456766
 21
630.4863152268867
 31
0.0
  0
LINE
  5
F1B
330
143
100
AcDbEntity
  8
寸法線
  6
Continuous
 62
     0
370
    -2
100
AcDbLine
 10
1162.007008456766
 20
725.4863152268861
 30
0.0
 11
1162.007008456766
 21
645.4863152268867
 31
0.0
  0
INSERT
  5
F1C
330
143
100
AcDbEntity
  8
寸法線
  6
Continuous
 62
     0
370
    -2
100
AcDbBlockReference
  2
_Open30
 10
1162.007008456766
 20
740.4863152268862
 30
0.0
 41
15.0
 42
15.0
 43
15.0
 50
90.0
  0
INSERT
  5
F1D
330
143
100
AcDbEntity
  8
寸法線
  6
Continuous
 62
     0
370
    -2
100
AcDbBlockReference
  2
_Open30
 10
1162.007008456766
 20
630.4863152268867
 30
0.0
 41
15.0
 42
15.0
 43
15.0
 50
270.0
  0
MTEXT
  5
F1E
330
143
100
AcDbEntity
  8
寸法線
  6
Continuous
 62
     0
100
AcDbMText
 10
1142.007008456766
 20
685.4863152268866
 30
0.0
 40
30.0
 41
0.0
 71
     5
 72
     1
  1
110
 11
0.0000000000000001
 21
1.0
 31
0.0
 73
     1
 44
1.0
1001
ACAD
1000
MTEXTBEGIN
1070
    73
1070
     1
1070
    44
1040
1.0
1070
    74
1070
     0
1000
MTEXTEND
  0
POINT
  5
F1F
330
143
100
AcDbEntity
  8
Defpoints
  6
Continuous
 62
     0
100
AcDbPoint
 10
972.0070084567661
 20
740.4863152268862
 30
0.0
  0
POINT
  5
F20
330
143
100
AcDbEntity
  8
Defpoints
  6
Continuous
 62
     0
100
AcDbPoint
 10
969.0070084567659
 20
630.4863152268867
 30
0.0
  0
POINT
  5
F21
330
143
100
AcDbEntity
  8
Defpoints
  6
Continuous
 62
     0
100
AcDbPoint
 10
1162.007008456766
 20
630.4863152268867
 30
0.0
  0
ENDBLK
  5
14E
330
143
100
AcDbEntity
  8
0
 48
3.0
100
AcDbBlockEnd
  0
BLOCK
  5
15A
330
150
100
AcDbEntity
  8
0
 48
3.0
100
AcDbBlockBegin
  2
*D7
 70
     1
 10
0.0
 20
0.0
 30
0.0
  3
*D7
  1

  0
LINE
  5
ED1
330
150
100
AcDbEntity
  8
寸法線
  6
Continuous
 62
     0
370
    -2
100
AcDbLine
 10
2034.936960014384
 20
1664.570394950034
 30
0.0
 11
2114.936965014384
 21
1664.570394950034
 31
0.0
  0
LINE
  5
ED2
330
150
100
AcDbEntity
  8
寸法線
  6
Continuous
 62
     0
370
    -2
100
AcDbLine
 10
2034.936960014384
 20
1254.570392950034
 30
0.0
 11
2114.936965014384
 21
1254.570392950034
 31
0.0
  0
LINE
  5
ED3
330
150
100
AcDbEntity
  8
寸法線
  6
Continuous
 62
     0
370
    -2
100
AcDbLine
 10
2099.936965014384
 20
1649.570394950034
 30
0.0
 11
2099.936965014384
 21
1269.570392950034
 31
0.0
  0
INSERT
  5
ED4
330
150
100
AcDbEntity
  8
寸法線
  6
Continuous
 62
     0
370
    -2
100
AcDbBlockReference
  2
_Open30
 10
2099.936965014384
 20
1664.570394950034
 30
0.0
 41
15.0
 42
15.0
 43
15.0
 50
90.0
  0
INSERT
  5
ED5
330
150
100
AcDbEntity
  8
寸法線
  6
Continuous
 62
     0
370
    -2
100
AcDbBlockReference
  2
_Open30
 10
2099.936965014384
 20
1254.570392950034
 30
0.0
 41
15.0
 42
15.0
 43
15.0
 50
270.0
  0
MTEXT
  5
ED6
330
150
100
AcDbEntity
  8
寸法線
  6
Continuous
 62
     0
100
AcDbMText
 10
2079.936965014384
 20
1459.570393950034
 30
0.0
 40
30.0
 41
0.0
 71
     5
 72
     1
  1
410
 11
0.0000000000000001
 21
1.0
 31
0.0
 73
     1
 44
1.0
1001
ACAD
1000
MTEXTBEGIN
1070
    73
1070
     1
1070
    44
1040
1.0
1070
    74
1070
     0
1000
MTEXTEND
  0
POINT
  5
ED7
330
150
100
AcDbEntity
  8
Defpoints
  6
Continuous
 62
     0
100
AcDbPoint
 10
2014.936960014384
 20
1664.570394950034
 30
0.0
  0
POINT
  5
ED8
330
150
100
AcDbEntity
  8
Defpoints
  6
Continuous
 62
     0
100
AcDbPoint
 10
2014.936960014384
 20
1254.570392950034
 30
0.0
  0
POINT
  5
ED9
330
150
100
AcDbEntity
  8
Defpoints
  6
Continuous
 62
     0
100
AcDbPoint
 10
2099.936965014384
 20
1254.570392950034
 30
0.0
  0
ENDBLK
  5
15B
330
150
100
AcDbEntity
  8
0
 48
3.0
100
AcDbBlockEnd
  0
BLOCK
  5
31B
330
311
100
AcDbEntity
  8
0
 48
3.0
100
AcDbBlockBegin
  2
*D8
 70
     1
 10
0.0
 20
0.0
 30
0.0
  3
*D8
  1

  0
LINE
  5
10F4
330
311
100
AcDbEntity
  8
寸法線
  6
Continuous
 62
     0
370
    -2
100
AcDbLine
 10
471.007008456766
 20
760.4863152268862
 30
0.0
 11
471.007008456766
 21
915.4863152268863
 31
0.0
  0
LINE
  5
10F5
330
311
100
AcDbEntity
  8
寸法線
  6
Continuous
 62
     0
370
    -2
100
AcDbLine
 10
972.0070084567661
 20
760.4863152268862
 30
0.0
 11
972.0070084567661
 21
915.4863152268863
 31
0.0
  0
LINE
  5
10F6
330
311
100
AcDbEntity
  8
寸法線
  6
Continuous
 62
     0
370
    -2
100
AcDbLine
 10
486.0070084567659
 20
900.4863152268862
 30
0.0
 11
957.007008456766
 21
900.4863152268862
 31
0.0
  0
INSERT
  5
10F7
330
311
100
AcDbEntity
  8
寸法線
  6
Continuous
 62
     0
370
    -2
100
AcDbBlockReference
  2
_Open30
 10
471.007008456766
 20
900.4863152268862
 30
0.0
 41
15.0
 42
15.0
 43
15.0
 50
180.0
  0
INSERT
  5
10F8
330
311
100
AcDbEntity
  8
寸法線
  6
Continuous
 62
     0
370
    -2
100
AcDbBlockReference
  2
_Open30
 10
972.0070084567661
 20
900.4863152268862
 30
0.0
 41
15.0
 42
15.0
 43
15.0
  0
MTEXT
  5
10F9
330
311
100
AcDbEntity
  8
寸法線
  6
Continuous
 62
     0
100
AcDbMText
 10
721.507008456766
 20
920.4863152268863
 30
0.0
 40
30.0
 41
0.0
 71
     5
 72
     1
  1
501
 73
     1
 44
1.0
1001
ACAD
1000
MTEXTBEGIN
1070
    73
1070
     1
1070
    44
1040
1.0
1070
    74
1070
     0
1000
MTEXTEND
  0
POINT
  5
10FA
330
311
100
AcDbEntity
  8
Defpoints
  6
Continuous
 62
     0
100
AcDbPoint
 10
471.007008456766
 20
740.4863152268862
 30
0.0
  0
POINT
  5
10FB
330
311
100
AcDbEntity
  8
Defpoints
  6
Continuous
 62
     0
100
AcDbPoint
 10
972.0070084567661
 20
740.4863152268862
 30
0.0
  0
POINT
  5
10FC
330
311
100
AcDbEntity
  8
Defpoints
  6
Continuous
 62
     0
100
AcDbPoint
 10
972.0070084567661
 20
900.4863152268862
 30
0.0
  0
ENDBLK
  5
31C
330
311
100
AcDbEntity
  8
0
 48
3.0
100
AcDbBlockEnd
  0
BLOCK
  5
32E
330
322
100
AcDbEntity
  8
0
 48
3.0
100
AcDbBlockBegin
  2
*D9
 70
     1
 10
0.0
 20
0.0
 30
0.0
  3
*D9
  1

  0
LINE
  5
F3F
330
322
100
AcDbEntity
  8
寸法線
  6
Continuous
 62
     0
370
    -2
100
AcDbLine
 10
989.0070084567661
 20
630.4863152268867
 30
0.0
 11
1097.007008456766
 21
630.4863152268867
 31
0.0
  0
LINE
  5
F40
330
322
100
AcDbEntity
  8
寸法線
  6
Continuous
 62
     0
370
    -2
100
AcDbLine
 10
989.0070084567661
 20
635.4863152268863
 30
0.0
 11
1097.007008456766
 21
635.4863152268863
 31
0.0
  0
LINE
  5
F41
330
322
100
AcDbEntity
  8
寸法線
  6
Continuous
 62
     0
370
    -2
100
AcDbLine
 10
1082.007008456766
 20
650.4863152268862
 30
0.0
 11
1082.007008456766
 21
665.4863152268863
 31
0.0
  0
LINE
  5
F42
330
322
100
AcDbEntity
  8
寸法線
  6
Continuous
 62
     0
370
    -2
100
AcDbLine
 10
1082.007008456766
 20
615.4863152268867
 30
0.0
 11
1082.007008456766
 21
574.545660461587
 31
0.0
  0
LINE
  5
F43
330
322
100
AcDbEntity
  8
寸法線
  6
Continuous
 62
     0
370
    -2
100
AcDbLine
 10
1082.007008456766
 20
635.4863152268863
 30
0.0
 11
1082.007008456766
 21
630.4863152268867
 31
0.0
  0
INSERT
  5
F44
330
322
100
AcDbEntity
  8
寸法線
  6
Continuous
 62
     0
370
    -2
100
AcDbBlockReference
  2
_Open30
 10
1082.007008456766
 20
635.4863152268863
 30
0.0
 41
15.0
 42
15.0
 43
15.0
 50
270.0
  0
INSERT
  5
F45
330
322
100
AcDbEntity
  8
寸法線
  6
Continuous
 62
     0
370
    -2
100
AcDbBlockReference
  2
_Open30
 10
1082.007008456766
 20
630.4863152268867
 30
0.0
 41
15.0
 42
15.0
 43
15.0
 50
90.0
  0
MTEXT
  5
F46
330
322
100
AcDbEntity
  8
寸法線
  6
Continuous
 62
     0
100
AcDbMText
 10
1062.007008456766
 20
587.3121579235159
 30
0.0
 40
30.0
 41
0.0
 71
     5
 72
     1
  1
5
 11
0.0000000000000001
 21
1.0
 31
0.0
 73
     1
 44
1.0
1001
ACAD
1000
MTEXTBEGIN
1070
    73
1070
     1
1070
    44
1040
1.0
1070
    74
1070
     0
1000
MTEXTEND
  0
POINT
  5
F47
330
322
100
AcDbEntity
  8
Defpoints
  6
Continuous
 62
     0
100
AcDbPoint
 10
969.0070084567659
 20
630.4863152268867
 30
0.0
  0
POINT
  5
F48
330
322
100
AcDbEntity
  8
Defpoints
  6
Continuous
 62
     0
100
AcDbPoint
 10
969.0070084567659
 20
635.4863152268863
 30
0.0
  0
POINT
  5
F49
330
322
100
AcDbEntity
  8
Defpoints
  6
Continuous
 62
     0
100
AcDbPoint
 10
1082.007008456766
 20
635.4863152268863
 30
0.0
  0
ENDBLK
  5
32F
330
322
100
AcDbEntity
  8
0
 48
3.0
100
AcDbBlockEnd
  0
BLOCK
  5
33B
330
331
100
AcDbEntity
  8
0
 48
3.0
100
AcDbBlockBegin
  2
*D10
 70
     1
 10
0.0
 20
0.0
 30
0.0
  3
*D10
  1

  0
LINE
  5
F36
330
331
100
AcDbEntity
  8
寸法線
  6
Continuous
 62
     0
370
    -2
100
AcDbLine
 10
989.0070084567661
 20
635.4863152268863
 30
0.0
 11
1097.007008456766
 21
635.4863152268863
 31
0.0
  0
LINE
  5
F37
330
331
100
AcDbEntity
  8
寸法線
  6
Continuous
 62
     0
370
    -2
100
AcDbLine
 10
992.007008456766
 20
690.4863152268862
 30
0.0
 11
1097.007008456766
 21
690.4863152268862
 31
0.0
  0
LINE
  5
F38
330
331
100
AcDbEntity
  8
寸法線
  6
Continuous
 62
     0
370
    -2
100
AcDbLine
 10
1082.007008456766
 20
650.4863152268862
 30
0.0
 11
1082.007008456766
 21
675.4863152268861
 31
0.0
  0
INSERT
  5
F39
330
331
100
AcDbEntity
  8
寸法線
  6
Continuous
 62
     0
370
    -2
100
AcDbBlockReference
  2
_Open30
 10
1082.007008456766
 20
635.4863152268863
 30
0.0
 41
15.0
 42
15.0
 43
15.0
 50
270.0
  0
INSERT
  5
F3A
330
331
100
AcDbEntity
  8
寸法線
  6
Continuous
 62
     0
370
    -2
100
AcDbBlockReference
  2
_Open30
 10
1082.007008456766
 20
690.4863152268862
 30
0.0
 41
15.0
 42
15.0
 43
15.0
 50
90.0
  0
MTEXT
  5
F3B
330
331
100
AcDbEntity
  8
寸法線
  6
Continuous
 62
     0
100
AcDbMText
 10
1062.007008456766
 20
662.9863152268862
 30
0.0
 40
30.0
 41
0.0
 71
     5
 72
     1
  1
55
 11
0.0000000000000001
 21
1.0
 31
0.0
 73
     1
 44
1.0
1001
ACAD
1000
MTEXTBEGIN
1070
    73
1070
     1
1070
    44
1040
1.0
1070
    74
1070
     0
1000
MTEXTEND
  0
POINT
  5
F3C
330
331
100
AcDbEntity
  8
Defpoints
  6
Continuous
 62
     0
100
AcDbPoint
 10
969.0070084567659
 20
635.4863152268863
 30
0.0
  0
POINT
  5
F3D
330
331
100
AcDbEntity
  8
Defpoints
  6
Continuous
 62
     0
100
AcDbPoint
 10
972.0070084567661
 20
690.4863152268862
 30
0.0
  0
POINT
  5
F3E
330
331
100
AcDbEntity
  8
Defpoints
  6
Continuous
 62
     0
100
AcDbPoint
 10
1082.007008456766
 20
690.4863152268862
 30
0.0
  0
ENDBLK
  5
33C
330
331
100
AcDbEntity
  8
0
 48
3.0
100
AcDbBlockEnd
  0
BLOCK
  5
348
330
33E
100
AcDbEntity
  8
0
 48
3.0
100
AcDbBlockBegin
  2
*D11
 70
     1
 10
0.0
 20
0.0
 30
0.0
  3
*D11
  1

  0
LINE
  5
F2D
330
33E
100
AcDbEntity
  8
寸法線
  6
Continuous
 62
     0
370
    -2
100
AcDbLine
 10
992.007008456766
 20
690.4863152268862
 30
0.0
 11
1097.007008456766
 21
690.4863152268862
 31
0.0
  0
LINE
  5
F2E
330
33E
100
AcDbEntity
  8
寸法線
  6
Continuous
 62
     0
370
    -2
100
AcDbLine
 10
992.007008456766
 20
740.4863152268862
 30
0.0
 11
1097.007008456766
 21
740.4863152268862
 31
0.0
  0
LINE
  5
F2F
330
33E
100
AcDbEntity
  8
寸法線
  6
Continuous
 62
     0
370
    -2
100
AcDbLine
 10
1082.007008456766
 20
705.4863152268861
 30
0.0
 11
1082.007008456766
 21
725.4863152268861
 31
0.0
  0
INSERT
  5
F30
330
33E
100
AcDbEntity
  8
寸法線
  6
Continuous
 62
     0
370
    -2
100
AcDbBlockReference
  2
_Open30
 10
1082.007008456766
 20
690.4863152268862
 30
0.0
 41
15.0
 42
15.0
 43
15.0
 50
270.0
  0
INSERT
  5
F31
330
33E
100
AcDbEntity
  8
寸法線
  6
Continuous
 62
     0
370
    -2
100
AcDbBlockReference
  2
_Open30
 10
1082.007008456766
 20
740.4863152268862
 30
0.0
 41
15.0
 42
15.0
 43
15.0
 50
90.0
  0
MTEXT
  5
F32
330
33E
100
AcDbEntity
  8
寸法線
  6
Continuous
 62
     0
100
AcDbMText
 10
1062.007008456766
 20
715.4863152268863
 30
0.0
 40
30.0
 41
0.0
 71
     5
 72
     1
  1
50
 11
0.0000000000000001
 21
1.0
 31
0.0
 73
     1
 44
1.0
1001
ACAD
1000
MTEXTBEGIN
1070
    73
1070
     1
1070
    44
1040
1.0
1070
    74
1070
     0
1000
MTEXTEND
  0
POINT
  5
F33
330
33E
100
AcDbEntity
  8
Defpoints
  6
Continuous
 62
     0
100
AcDbPoint
 10
972.0070084567661
 20
690.4863152268862
 30
0.0
  0
POINT
  5
F34
330
33E
100
AcDbEntity
  8
Defpoints
  6
Continuous
 62
     0
100
AcDbPoint
 10
972.0070084567661
 20
740.4863152268862
 30
0.0
  0
POINT
  5
F35
330
33E
100
AcDbEntity
  8
Defpoints
  6
Continuous
 62
     0
100
AcDbPoint
 10
1082.007008456766
 20
740.4863152268862
 30
0.0
  0
ENDBLK
  5
349
330
33E
100
AcDbEntity
  8
0
 48
3.0
100
AcDbBlockEnd
  0
BLOCK
  5
6F7
330
6ED
100
AcDbEntity
  8
0
 48
3.0
100
AcDbBlockBegin
  2
*D12
 70
     1
 10
0.0
 20
0.0
 30
0.0
  3
*D12
  1

  0
LINE
  5
EEC
330
6ED
100
AcDbEntity
  8
寸法線
 62
     0
 48
3.0
370
    -2
100
AcDbLine
 10
1887.936963014385
 20
1634.570393950034
 30
0.0
 11
1814.936963014385
 21
1634.570393950034
 31
0.0
  0
LINE
  5
EED
330
6ED
100
AcDbEntity
  8
寸法線
 62
     0
 48
3.0
370
    -2
100
AcDbLine
 10
1887.936963014385
 20
1584.570393950034
 30
0.0
 11
1814.936963014385
 21
1584.570393950034
 31
0.0
  0
LINE
  5
EEE
330
6ED
100
AcDbEntity
  8
寸法線
 62
     0
 48
3.0
370
    -2
100
AcDbLine
 10
1829.936963014384
 20
1619.570393950034
 30
0.0
 11
1829.936963014384
 21
1599.570393950034
 31
0.0
  0
INSERT
  5
EEF
330
6ED
100
AcDbEntity
  8
寸法線
 62
     0
 48
3.0
370
    -2
100
AcDbBlockReference
  2
_Open30
 10
1829.936963014384
 20
1634.570393950034
 30
0.0
 41
15.0
 42
15.0
 43
15.0
 50
90.0
  0
INSERT
  5
EF0
330
6ED
100
AcDbEntity
  8
寸法線
 62
     0
 48
3.0
370
    -2
100
AcDbBlockReference
  2
_Open30
 10
1829.936963014384
 20
1584.570393950034
 30
0.0
 41
15.0
 42
15.0
 43
15.0
 50
270.0
  0
MTEXT
  5
EF1
330
6ED
100
AcDbEntity
  8
寸法線
 62
     0
 48
3.0
100
AcDbMText
 10
1809.936963014384
 20
1609.570393950034
 30
0.0
 40
30.0
 41
0.0
 71
     5
 72
     1
  1
50
 11
0.0000000000000001
 21
1.0
 31
0.0
 73
     1
 44
1.0
1001
ACAD
1000
MTEXTBEGIN
1070
    73
1070
     1
1070
    44
1040
1.0
1070
    74
1070
     0
1000
MTEXTEND
  0
POINT
  5
EF2
330
6ED
100
AcDbEntity
  8
Defpoints
 62
     0
 48
3.0
100
AcDbPoint
 10
1907.936963014385
 20
1634.570393950034
 30
0.0
  0
POINT
  5
EF3
330
6ED
100
AcDbEntity
  8
Defpoints
 62
     0
 48
3.0
100
AcDbPoint
 10
1907.936963014385
 20
1584.570393950034
 30
0.0
  0
POINT
  5
EF4
330
6ED
100
AcDbEntity
  8
Defpoints
 62
     0
 48
3.0
100
AcDbPoint
 10
1829.936963014384
 20
1584.570393950034
 30
0.0
  0
ENDBLK
  5
6F8
330
6ED
100
AcDbEntity
  8
0
 48
3.0
100
AcDbBlockEnd
  0
BLOCK
  5
BAB
330
BA1
100
AcDbEntity
  8
0
 48
3.0
100
AcDbBlockBegin
  2
*D22
 70
     1
 10
0.0
 20
0.0
 30
0.0
  3
*D22
  1

  0
LINE
  5
F0D
330
BA1
100
AcDbEntity
  8
寸法線
 62
     0
 48
3.0
370
    -2
100
AcDbLine
 10
474.007008456766
 20
611.3506882413296
 30
0.0
 11
474.007008456766
 21
535.4863152268863
 31
0.0
  0
LINE
  5
F0E
330
BA1
100
AcDbEntity
  8
寸法線
 62
     0
 48
3.0
370
    -2
100
AcDbLine
 10
969.0070084567659
 20
611.9267296430608
 30
0.0
 11
969.0070084567659
 21
535.4863152268863
 31
0.0
  0
LINE
  5
F0F
330
BA1
100
AcDbEntity
  8
寸法線
 62
     0
 48
3.0
370
    -2
100
AcDbLine
 10
489.007008456766
 20
550.4863152268862
 30
0.0
 11
954.0070084567659
 21
550.4863152268862
 31
0.0
  0
INSERT
  5
F10
330
BA1
100
AcDbEntity
  8
寸法線
 62
     0
 48
3.0
370
    -2
100
AcDbBlockReference
  2
_Open30
 10
474.007008456766
 20
550.4863152268862
 30
0.0
 41
15.0
 42
15.0
 43
15.0
 50
180.0
  0
INSERT
  5
F11
330
BA1
100
AcDbEntity
  8
寸法線
 62
     0
 48
3.0
370
    -2
100
AcDbBlockReference
  2
_Open30
 10
969.0070084567659
 20
550.4863152268862
 30
0.0
 41
15.0
 42
15.0
 43
15.0
  0
MTEXT
  5
F12
330
BA1
100
AcDbEntity
  8
寸法線
 62
     0
 48
3.0
100
AcDbMText
 10
721.507008456766
 20
570.4863152268862
 30
0.0
 40
30.0
 41
0.0
 71
     5
 72
     1
  1
495
 73
     1
 44
1.0
1001
ACAD
1000
MTEXTBEGIN
1070
    73
1070
     1
1070
    44
1040
1.0
1070
    74
1070
     0
1000
MTEXTEND
  0
POINT
  5
F13
330
BA1
100
AcDbEntity
  8
Defpoints
 62
     0
 48
3.0
100
AcDbPoint
 10
474.007008456766
 20
631.3506882413296
 30
0.0
  0
POINT
  5
F14
330
BA1
100
AcDbEntity
  8
Defpoints
 62
     0
 48
3.0
100
AcDbPoint
 10
969.0070084567659
 20
631.9267296430608
 30
0.0
  0
POINT
  5
F15
330
BA1
100
AcDbEntity
  8
Defpoints
 62
     0
 48
3.0
100
AcDbPoint
 10
969.0070084567659
 20
550.4863152268862
 30
0.0
  0
ENDBLK
  5
BAC
330
BA1
100
AcDbEntity
  8
0
 48
3.0
100
AcDbBlockEnd
  0
BLOCK
  5
D85
330
D81
100
AcDbEntity
  8
0
 48
3.0
100
AcDbBlockBegin
  2
清水
 70
     0
 10
0.0
 20
0.0
 30
0.0
  3
清水
  1

  0
ELLIPSE
  5
D82
330
D81
100
AcDbEntity
  8
外枠
  6
Continuous
100
AcDbEllipse
 10
61.95950207238002
 20
-84.98104152054944
 30
0.0
 11
0.0
 21
-48.07578326062735
 31
0.0
210
0.0
220
0.0
230
1.0
 40
0.7999999999999857
 41
0.0
 42
6.283185307179586
  0
MTEXT
  5
D83
330
D81
100
AcDbEntity
  8
外枠
  6
Continuous
100
AcDbMText
 10
43.62136371980841
 20
-91.25020745848743
 30
0.0
 40
25.0
 41
38.0342
 71
     1
 72
     5
  1
{\fHG正楷書体-PRO|b0|i0|c128|p65;水}
 73
     1
 44
1.0
1001
ACAD
1000
MTEXTBEGIN
1070
    73
1070
     1
1070
    44
1040
1.0
1070
    74
1070
     0
1000
MTEXTEND
  0
MTEXT
  5
D84
330
D81
100
AcDbEntity
  8
外枠
  6
Continuous
100
AcDbMText
 10
44.0164673811646
 20
-47.73028505679667
 30
0.0
 40
25.0
 41
37.8613
 71
     1
 72
     5
  1
{\fHG正楷書体-PRO|b0|i0|c128|p65;清}
 73
     1
 44
1.0
1001
ACAD
1000
MTEXTBEGIN
1070
    73
1070
     1
1070
    44
1040
1.0
1070
    74
1070
     0
1000
MTEXTEND
  0
ENDBLK
  5
D86
330
D81
100
AcDbEntity
  8
0
 48
3.0
100
AcDbBlockEnd
  0
BLOCK
  5
E63
330
E61
100
AcDbEntity
  8
0
 48
3.0
100
AcDbBlockBegin
  2
鎌下
 70
     0
 10
0.0
 20
0.0
 30
0.0
  3
鎌下
  1

  0
MTEXT
  5
E64
330
E61
100
AcDbEntity
  8
外枠
  6
Continuous
100
AcDbMText
 10
40.55333581259037
 20
-88.14888116777728
 30
0.0
 40
28.17460800000001
 41
43.8527
 71
     1
 72
     5
  1
{\fHGSeikaishotaiPRO|b0|i0|c128|p65;下}
 73
     1
 44
1.0
1001
ACAD
1000
MTEXTBEGIN
1070
    73
1070
     1
1070
    44
1040
1.0
1070
    74
1070
     0
1000
MTEXTEND
  0
MTEXT
  5
E65
330
E61
100
AcDbEntity
  8
外枠
  6
Continuous
100
AcDbMText
 10
40.55333581259037
 20
-45.61885629864991
 30
0.0
 40
28.17460800000001
 41
43.8527
 71
     1
 72
     5
  1
{\fHGSeikaishotaiPRO|b0|i0|c128|p65;鎌}
 73
     1
 44
1.0
1001
ACAD
1000
MTEXTBEGIN
1070
    73
1070
     1
1070
    44
1040
1.0
1070
    74
1070
     0
1000
MTEXTEND
  0
ELLIPSE
  5
E66
330
E61
100
AcDbEntity
  8
外枠
  6
Continuous
100
AcDbEllipse
 10
61.68068686355036
 20
-84.59863033186412
 30
0.0
 11
0.0
 21
-47.8594442149426
 31
0.0
210
0.0
220
0.0
230
1.0
 40
0.7999999999999857
 41
0.0
 42
6.283185307179586
  0
ENDBLK
  5
E67
330
E61
100
AcDbEntity
  8
0
 48
3.0
100
AcDbBlockEnd
  0
BLOCK
  5
F00
330
EFF
100
AcDbEntity
  8
0
 48
3.0
100
AcDbBlockBegin
  2
*D25
 70
     1
 10
0.0
 20
0.0
 30
0.0
  3
*D25
  1

  0
LINE
  5
10E9
330
EFF
100
AcDbEntity
  8
寸法線
 62
     0
 48
3.0
370
    -2
100
AcDbLine
 10
792.2070084567658
 20
768.4863152268863
 30
0.0
 11
792.2070084567658
 21
835.4863152268862
 31
0.0
  0
LINE
  5
10EA
330
EFF
100
AcDbEntity
  8
寸法線
 62
     0
 48
3.0
370
    -2
100
AcDbLine
 10
827.507008456766
 20
768.4863152268863
 30
0.0
 11
827.507008456766
 21
835.4863152268862
 31
0.0
  0
LINE
  5
10EB
330
EFF
100
AcDbEntity
  8
寸法線
 62
     0
 48
3.0
370
    -2
100
AcDbLine
 10
777.2070084567658
 20
820.4863152268863
 30
0.0
 11
762.2070084567658
 21
820.4863152268863
 31
0.0
  0
LINE
  5
10EC
330
EFF
100
AcDbEntity
  8
寸法線
 62
     0
 48
3.0
370
    -2
100
AcDbLine
 10
842.5070084567661
 20
820.4863152268863
 30
0.0
 11
941.51716074103
 21
820.4863152268863
 31
0.0
  0
LINE
  5
10ED
330
EFF
100
AcDbEntity
  8
寸法線
 62
     0
 48
3.0
370
    -2
100
AcDbLine
 10
792.2070084567658
 20
820.4863152268863
 30
0.0
 11
827.507008456766
 21
820.4863152268863
 31
0.0
  0
INSERT
  5
10EE
330
EFF
100
AcDbEntity
  8
寸法線
 62
     0
 48
3.0
370
    -2
100
AcDbBlockReference
  2
_Open30
 10
792.2070084567658
 20
820.4863152268863
 30
0.0
 41
15.0
 42
15.0
 43
15.0
  0
INSERT
  5
10EF
330
EFF
100
AcDbEntity
  8
寸法線
 62
     0
 48
3.0
370
    -2
100
AcDbBlockReference
  2
_Open30
 10
827.507008456766
 20
820.4863152268863
 30
0.0
 41
15.0
 42
15.0
 43
15.0
 50
180.0
  0
MTEXT
  5
10F0
330
EFF
100
AcDbEntity
  8
寸法線
 62
     0
 48
3.0
100
AcDbMText
 10
899.512084598898
 20
840.4863152268863
 30
0.0
 40
30.0
 41
0.0
 71
     5
 72
     1
  1
35.3
 73
     1
 44
1.0
1001
ACAD
1000
MTEXTBEGIN
1070
    73
1070
     1
1070
    44
1040
1.0
1070
    74
1070
     0
1000
MTEXTEND
  0
POINT
  5
10F1
330
EFF
100
AcDbEntity
  8
Defpoints
 62
     0
 48
3.0
100
AcDbPoint
 10
792.2070084567658
 20
748.4863152268863
 30
0.0
  0
POINT
  5
10F2
330
EFF
100
AcDbEntity
  8
Defpoints
 62
     0
 48
3.0
100
AcDbPoint
 10
827.507008456766
 20
748.4863152268863
 30
0.0
  0
POINT
  5
10F3
330
EFF
100
AcDbEntity
  8
Defpoints
 62
     0
 48
3.0
100
AcDbPoint
 10
827.507008456766
 20
820.4863152268863
 30
0.0
  0
ENDBLK
  5
F01
330
EFF
100
AcDbEntity
  8
0
 48
3.0
100
AcDbBlockEnd
  0
BLOCK
  5
F5A
330
F50
100
AcDbEntity
  8
0
 48
3.0
100
AcDbBlockBegin
  2
P-H55
 70
     0
 10
0.0
 20
0.0
 30
0.0
  3
P-H55
  1

  0
LINE
  5
F5F
330
F50
100
AcDbEntity
  8
嵩上断面
100
AcDbLine
 10
2.999997
 20
0.000001
 30
0.0
 11
51.999997
 21
0.000001
 31
0.0
  0
LINE
  5
F60
330
F50
100
AcDbEntity
  8
嵩上断面
100
AcDbLine
 10
-0.000003
 20
-2.999999
 30
0.0
 11
-0.000003
 21
-36.999999
 31
0.0
  0
LINE
  5
F61
330
F50
100
AcDbEntity
  8
嵩上断面
100
AcDbLine
 10
2.999997
 20
-39.999999
 30
0.0
 11
51.999997
 21
-39.999999
 31
0.0
  0
ARC
  5
F62
330
F50
100
AcDbEntity
  8
嵩上断面
100
AcDbCircle
 10
2.999997
 20
-36.999999
 30
0.0
 40
3.0
100
AcDbArc
 50
180.0
 51
270.0
  0
ARC
  5
F63
330
F50
100
AcDbEntity
  8
嵩上断面
100
AcDbCircle
 10
2.999997
 20
-2.999999
 30
0.0
 40
3.0
100
AcDbArc
 50
90.0
 51
180.0
  0
LINE
  5
F64
330
F50
100
AcDbEntity
  8
嵩上断面
100
AcDbLine
 10
54.999997
 20
-2.999999
 30
0.0
 11
54.999997
 21
-36.999999
 31
0.0
  0
ARC
  5
F65
330
F50
100
AcDbEntity
  8
嵩上断面
100
AcDbCircle
 10
51.999997
 20
-2.999999
 30
0.0
 40
3.0
100
AcDbArc
 50
0.0
 51
90.0
  0
ARC
  5
F66
330
F50
100
AcDbEntity
  8
嵩上断面
100
AcDbCircle
 10
51.999997
 20
-36.999999
 30
0.0
 40
3.0
100
AcDbArc
 50
270.0
 51
0.0
  0
LWPOLYLINE
  5
F67
330
F50
100
AcDbEntity
  8
嵩上断面
  6
Continuous
100
AcDbPolyline
 90
        4
 70
     1
 43
0.0
 10
2.299996999999999
 20
-37.69999900000001
 10
52.699997
 20
-37.69999900000001
 10
52.699997
 20
-2.299998999999999
 10
2.299996999999999
 20
-2.299998999999999
  0
ENDBLK
  5
F5B
330
F50
100
AcDbEntity
  8
0
 48
3.0
100
AcDbBlockEnd
  0
BLOCK
  5
1047
330
1046
100
AcDbEntity
  8
0
 48
3.0
100
AcDbBlockBegin
  2
*U27
 70
     1
 10
0.0
 20
0.0
 30
0.0
  3
*U27
  1

  0
LINE
  5
104D
330
1046
100
AcDbEntity
  8
本体
  6
Continuous
100
AcDbLine
 10
-16.90000000000009
 20
25.0
 30
0.0
 11
11.40000000000009
 21
25.0
 31
0.0
  0
LINE
  5
104E
330
1046
100
AcDbEntity
  8
本体
  6
Continuous
100
AcDbLine
 10
-16.90000000000009
 20
17.0
 30
0.0
 11
11.40000000000009
 21
17.0
 31
0.0
  0
LINE
  5
104F
330
1046
100
AcDbEntity
  8
本体
  6
Continuous
100
AcDbLine
 10
-16.90000000000009
 20
17.0
 30
0.0
 11
11.40000000000009
 21
25.0
 31
0.0
  0
LINE
  5
1050
330
1046
100
AcDbEntity
  8
本体
100
AcDbLine
 10
11.40000000000009
 20
25.0
 30
0.0
 11
18.40000000000009
 21
25.0
 31
0.0
  0
LINE
  5
1051
330
1046
100
AcDbEntity
  8
本体
100
AcDbLine
 10
11.40000000000009
 20
25.0
 30
0.0
 11
11.40000000000009
 21
15.0
 31
0.0
  0
LINE
  5
1052
330
1046
100
AcDbEntity
  8
本体
100
AcDbLine
 10
11.40000000000009
 20
15.0
 30
0.0
 11
12.90000000000009
 21
14.0
 31
0.0
  0
LINE
  5
1053
330
1046
100
AcDbEntity
  8
本体
100
AcDbLine
 10
18.40000000000009
 20
25.0
 30
0.0
 11
18.40000000000009
 21
15.0
 31
0.0
  0
LINE
  5
1054
330
1046
100
AcDbEntity
  8
本体
100
AcDbLine
 10
18.40000000000009
 20
15.0
 30
0.0
 11
16.90000000000009
 21
14.0
 31
0.0
  0
LINE
  5
1055
330
1046
100
AcDbEntity
  8
本体
100
AcDbLine
 10
11.40000000000009
 20
-25.0
 30
0.0
 11
18.40000000000009
 21
-25.0
 31
0.0
  0
LINE
  5
1056
330
1046
100
AcDbEntity
  8
本体
100
AcDbLine
 10
11.40000000000009
 20
-25.0
 30
0.0
 11
11.40000000000009
 21
-15.0
 31
0.0
  0
LINE
  5
1057
330
1046
100
AcDbEntity
  8
本体
100
AcDbLine
 10
11.40000000000009
 20
-15.0
 30
0.0
 11
12.90000000000009
 21
-14.0
 31
0.0
  0
LINE
  5
1058
330
1046
100
AcDbEntity
  8
本体
100
AcDbLine
 10
18.40000000000009
 20
-25.0
 30
0.0
 11
18.40000000000009
 21
-15.0
 31
0.0
  0
LINE
  5
1059
330
1046
100
AcDbEntity
  8
本体
100
AcDbLine
 10
18.40000000000009
 20
-15.0
 30
0.0
 11
16.90000000000009
 21
-14.0
 31
0.0
  0
LINE
  5
105A
330
1046
100
AcDbEntity
  8
本体
100
AcDbLine
 10
12.90000000000009
 20
14.0
 30
0.0
 11
12.90000000000009
 21
-14.0
 31
0.0
  0
LINE
  5
105B
330
1046
100
AcDbEntity
  8
本体
100
AcDbLine
 10
16.90000000000009
 20
14.0
 30
0.0
 11
16.90000000000009
 21
-14.0
 31
0.0
  0
LINE
  5
105C
330
1046
100
AcDbEntity
  8
本体
  6
Continuous
100
AcDbLine
 10
-18.40000000000009
 20
-13.00000000000011
 30
0.0
 11
12.90000000000009
 21
-12.99999999999988
 31
0.0
  0
ENDBLK
  5
1048
330
1046
100
AcDbEntity
  8
0
 48
3.0
100
AcDbBlockEnd
  0
BLOCK
  5
104A
330
1049
100
AcDbEntity
  8
0
 48
3.0
100
AcDbBlockBegin
  2
*U28
 70
     1
 10
0.0
 20
0.0
 30
0.0
  3
*U28
  1

  0
INSERT
  5
106B
330
1049
100
AcDbEntity
  8
エンボス
  6
ByBlock
 62
     0
370
    -2
380
     1
100
AcDbBlockReference
  2
*U27
 10
0.0
 20
0.0
 30
0.0
  0
INSERT
  5
106C
330
1049
100
AcDbEntity
  8
エンボス
  6
ByBlock
 62
     0
370
    -2
380
     1
100
AcDbBlockReference
  2
*U27
 10
35.3
 20
0.0
 30
0.0
  0
INSERT
  5
106D
330
1049
100
AcDbEntity
  8
エンボス
  6
ByBlock
 62
     0
370
    -2
380
     1
100
AcDbBlockReference
  2
*U27
 10
70.59999999999999
 20
0.0
 30
0.0
  0
INSERT
  5
106E
330
1049
100
AcDbEntity
  8
エンボス
  6
ByBlock
 62
     0
370
    -2
380
     1
100
AcDbBlockReference
  2
*U27
 10
105.9
 20
0.0
 30
0.0
  0
INSERT
  5
106F
330
1049
100
AcDbEntity
  8
エンボス
  6
ByBlock
 62
     0
370
    -2
380
     1
100
AcDbBlockReference
  2
*U27
 10
141.2
 20
0.0
 30
0.0
  0
INSERT
  5
1070
330
1049
100
AcDbEntity
  8
エンボス
  6
ByBlock
 62
     0
370
    -2
380
     1
100
AcDbBlockReference
  2
*U27
 10
176.5
 20
0.0
 30
0.0
  0
INSERT
  5
1071
330
1049
100
AcDbEntity
  8
エンボス
  6
ByBlock
 62
     0
370
    -2
380
     1
100
AcDbBlockReference
  2
*U27
 10
211.8
 20
0.0
 30
0.0
  0
INSERT
  5
1072
330
1049
100
AcDbEntity
  8
エンボス
  6
ByBlock
 62
     0
370
    -2
380
     1
100
AcDbBlockReference
  2
*U27
 10
247.1
 20
0.0
 30
0.0
  0
INSERT
  5
1073
330
1049
100
AcDbEntity
  8
エンボス
  6
ByBlock
 62
     0
370
    -2
380
     1
100
AcDbBlockReference
  2
*U27
 10
282.4
 20
0.0
 30
0.0
  0
INSERT
  5
1074
330
1049
100
AcDbEntity
  8
エンボス
  6
ByBlock
 62
     0
370
    -2
380
     1
100
AcDbBlockReference
  2
*U27
 10
317.7
 20
0.0
 30
0.0
  0
INSERT
  5
1075
330
1049
100
AcDbEntity
  8
エンボス
  6
ByBlock
 62
     0
370
    -2
380
     1
100
AcDbBlockReference
  2
*U27
 10
353.0
 20
0.0
 30
0.0
  0
INSERT
  5
1076
330
1049
100
AcDbEntity
  8
エンボス
  6
ByBlock
 62
     0
370
    -2
380
     1
100
AcDbBlockReference
  2
*U27
 10
388.3
 20
0.0
 30
0.0
  0
INSERT
  5
1077
330
1049
100
AcDbEntity
  8
エンボス
  6
ByBlock
 62
     0
370
    -2
380
     1
100
AcDbBlockReference
  2
*U27
 10
423.5999999999999
 20
0.0
 30
0.0
  0
ENDBLK
  5
104B
330
1049
100
AcDbEntity
  8
0
 48
3.0
100
AcDbBlockEnd
  0
BLOCK
  5
107A
330
1079
100
AcDbEntity
  8
0
 48
3.0
100
AcDbBlockBegin
  2
*U29
 70
     1
 10
0.0
 20
0.0
 30
0.0
  3
*U29
  1

  0
LINE
  5
1080
330
1079
100
AcDbEntity
  8
本体
  6
Continuous
100
AcDbLine
 10
21.15000000000009
 20
210.5
 30
0.0
 11
21.15000000000009
 21
179.0
 31
0.0
  0
LINE
  5
1081
330
1079
100
AcDbEntity
  8
本体
  6
Continuous
100
AcDbLine
 10
14.15000000000009
 20
210.5
 30
0.0
 11
14.15000000000009
 21
179.0
 31
0.0
  0
LINE
  5
1082
330
1079
100
AcDbEntity
  8
本体
  6
Continuous
100
AcDbLine
 10
21.15000000000009
 20
171.0
 30
0.0
 11
21.15000000000009
 21
129.0
 31
0.0
  0
LINE
  5
1083
330
1079
100
AcDbEntity
  8
本体
  6
Continuous
100
AcDbLine
 10
14.15000000000009
 20
171.0
 30
0.0
 11
14.15000000000009
 21
129.0
 31
0.0
  0
LINE
  5
1084
330
1079
100
AcDbEntity
  8
本体
  6
Continuous
100
AcDbLine
 10
14.15000000000009
 20
-210.5
 30
0.0
 11
14.15000000000009
 21
-179.0
 31
0.0
  0
LINE
  5
1085
330
1079
100
AcDbEntity
  8
本体
  6
Continuous
100
AcDbLine
 10
21.15000000000009
 20
-210.5
 30
0.0
 11
21.15000000000009
 21
-179.0
 31
0.0
  0
LINE
  5
1086
330
1079
100
AcDbEntity
  8
本体
  6
Continuous
100
AcDbLine
 10
-21.15000000000009
 20
171.0
 30
0.0
 11
14.15000000000009
 21
179.0
 31
0.0
  0
LINE
  5
1087
330
1079
100
AcDbEntity
  8
エンボス
  6
Continuous
100
AcDbLine
 10
14.15000000000009
 20
205.864094
 30
0.0
 11
21.15000000000009
 21
207.864094
 31
0.0
  0
LINE
  5
1088
330
1079
100
AcDbEntity
  8
エンボス
  6
Continuous
100
AcDbLine
 10
21.15000000000009
 20
200.864094
 30
0.0
 11
14.15000000000009
 21
202.864094
 31
0.0
  0
LINE
  5
1089
330
1079
100
AcDbEntity
  8
エンボス
  6
Continuous
100
AcDbLine
 10
21.15000000000009
 20
188.864094
 30
0.0
 11
14.15000000000009
 21
186.864094
 31
0.0
  0
LINE
  5
108A
330
1079
100
AcDbEntity
  8
エンボス
  6
Continuous
100
AcDbLine
 10
14.15000000000009
 20
193.864094
 30
0.0
 11
21.15000000000009
 21
191.864094
 31
0.0
  0
LINE
  5
108B
330
1079
100
AcDbEntity
  8
エンボス
  6
Continuous
100
AcDbLine
 10
14.15000000000009
 20
132.5
 30
0.0
 11
21.15000000000009
 21
130.5
 31
0.0
  0
LINE
  5
108C
330
1079
100
AcDbEntity
  8
エンボス
  6
Continuous
100
AcDbLine
 10
21.15000000000009
 20
137.5
 30
0.0
 11
14.15000000000009
 21
135.5
 31
0.0
  0
LINE
  5
108D
330
1079
100
AcDbEntity
  8
エンボス
  6
Continuous
100
AcDbLine
 10
21.15000000000009
 20
146.5
 30
0.0
 11
14.15000000000009
 21
144.5
 31
0.0
  0
LINE
  5
108E
330
1079
100
AcDbEntity
  8
エンボス
  6
Continuous
100
AcDbLine
 10
14.15000000000009
 20
151.5
 30
0.0
 11
21.15000000000009
 21
149.5
 31
0.0
  0
LINE
  5
108F
330
1079
100
AcDbEntity
  8
エンボス
  6
Continuous
100
AcDbLine
 10
14.15000000000009
 20
160.5
 30
0.0
 11
21.15000000000009
 21
158.5
 31
0.0
  0
LINE
  5
1090
330
1079
100
AcDbEntity
  8
エンボス
  6
Continuous
100
AcDbLine
 10
21.15000000000009
 20
165.5
 30
0.0
 11
14.15000000000009
 21
163.5
 31
0.0
  0
LINE
  5
1091
330
1079
100
AcDbEntity
  8
エンボス
  6
Continuous
100
AcDbLine
 10
21.15000000000009
 20
-190.5762170528537
 30
0.0
 11
14.15000000000009
 21
-188.5762170528537
 31
0.0
  0
LINE
  5
1092
330
1079
100
AcDbEntity
  8
エンボス
  6
Continuous
100
AcDbLine
 10
21.15000000000009
 20
-202.5762170528537
 30
0.0
 11
14.15000000000009
 21
-204.5762170528537
 31
0.0
  0
LINE
  5
1093
330
1079
100
AcDbEntity
  8
エンボス
  6
Continuous
100
AcDbLine
 10
14.15000000000009
 20
-197.5762170528537
 30
0.0
 11
21.15000000000009
 21
-199.5762170528537
 31
0.0
  0
LINE
  5
1094
330
1079
100
AcDbEntity
  8
エンボス
  6
Continuous
100
AcDbLine
 10
14.15000000000009
 20
-185.5762170528537
 30
0.0
 11
21.15000000000009
 21
-183.5762170528537
 31
0.0
  0
LINE
  5
1095
330
1079
100
AcDbEntity
  8
エンボス
  6
Continuous
100
AcDbLine
 10
21.15000000000009
 20
96.5
 30
0.0
 11
14.15000000000009
 21
94.50000000000001
 31
0.0
  0
LINE
  5
1096
330
1079
100
AcDbEntity
  8
本体
  6
Continuous
100
AcDbLine
 10
14.15000000000009
 20
121.0
 30
0.0
 11
14.15000000000009
 21
79.0
 31
0.0
  0
LINE
  5
1097
330
1079
100
AcDbEntity
  8
本体
  6
Continuous
100
AcDbLine
 10
21.15000000000009
 20
121.0
 30
0.0
 11
21.15000000000009
 21
79.0
 31
0.0
  0
LINE
  5
1098
330
1079
100
AcDbEntity
  8
エンボス
  6
Continuous
100
AcDbLine
 10
21.15000000000009
 20
87.5
 30
0.0
 11
14.15000000000009
 21
85.5
 31
0.0
  0
LINE
  5
1099
330
1079
100
AcDbEntity
  8
エンボス
  6
Continuous
100
AcDbLine
 10
14.15000000000009
 20
82.5
 30
0.0
 11
21.15000000000009
 21
80.5
 31
0.0
  0
LINE
  5
109A
330
1079
100
AcDbEntity
  8
本体
  6
Continuous
100
AcDbLine
 10
-21.15000000000009
 20
121.0
 30
0.0
 11
14.15000000000009
 21
129.0
 31
0.0
  0
LINE
  5
109B
330
1079
100
AcDbEntity
  8
エンボス
  6
Continuous
100
AcDbLine
 10
14.15000000000009
 20
101.5
 30
0.0
 11
21.15000000000009
 21
99.50000000000001
 31
0.0
  0
LINE
  5
109C
330
1079
100
AcDbEntity
  8
エンボス
  6
Continuous
100
AcDbLine
 10
14.15000000000009
 20
110.5
 30
0.0
 11
21.15000000000009
 21
108.5
 31
0.0
  0
LINE
  5
109D
330
1079
100
AcDbEntity
  8
エンボス
  6
Continuous
100
AcDbLine
 10
21.15000000000009
 20
115.5
 30
0.0
 11
14.15000000000009
 21
113.5
 31
0.0
  0
LINE
  5
109E
330
1079
100
AcDbEntity
  8
エンボス
  6
Continuous
100
AcDbLine
 10
21.15000000000009
 20
46.5
 30
0.0
 11
14.15000000000009
 21
44.5
 31
0.0
  0
LINE
  5
109F
330
1079
100
AcDbEntity
  8
本体
  6
Continuous
100
AcDbLine
 10
14.15000000000009
 20
71.0
 30
0.0
 11
14.15000000000009
 21
29.0
 31
0.0
  0
LINE
  5
10A0
330
1079
100
AcDbEntity
  8
本体
  6
Continuous
100
AcDbLine
 10
21.15000000000009
 20
71.0
 30
0.0
 11
21.15000000000009
 21
29.0
 31
0.0
  0
LINE
  5
10A1
330
1079
100
AcDbEntity
  8
エンボス
  6
Continuous
100
AcDbLine
 10
21.15000000000009
 20
37.5
 30
0.0
 11
14.15000000000009
 21
35.5
 31
0.0
  0
LINE
  5
10A2
330
1079
100
AcDbEntity
  8
エンボス
  6
Continuous
100
AcDbLine
 10
14.15000000000009
 20
32.5
 30
0.0
 11
21.15000000000009
 21
30.5
 31
0.0
  0
LINE
  5
10A3
330
1079
100
AcDbEntity
  8
本体
  6
Continuous
100
AcDbLine
 10
-21.15000000000009
 20
71.0
 30
0.0
 11
14.15000000000009
 21
79.0
 31
0.0
  0
LINE
  5
10A4
330
1079
100
AcDbEntity
  8
エンボス
  6
Continuous
100
AcDbLine
 10
14.15000000000009
 20
51.5
 30
0.0
 11
21.15000000000009
 21
49.5
 31
0.0
  0
LINE
  5
10A5
330
1079
100
AcDbEntity
  8
エンボス
  6
Continuous
100
AcDbLine
 10
14.15000000000009
 20
60.5
 30
0.0
 11
21.15000000000009
 21
58.5
 31
0.0
  0
LINE
  5
10A6
330
1079
100
AcDbEntity
  8
エンボス
  6
Continuous
100
AcDbLine
 10
21.15000000000009
 20
65.5
 30
0.0
 11
14.15000000000009
 21
63.5
 31
0.0
  0
LINE
  5
10A7
330
1079
100
AcDbEntity
  8
エンボス
  6
Continuous
100
AcDbLine
 10
21.15000000000009
 20
-3.5
 30
0.0
 11
14.15000000000009
 21
-5.5
 31
0.0
  0
LINE
  5
10A8
330
1079
100
AcDbEntity
  8
本体
  6
Continuous
100
AcDbLine
 10
14.15000000000009
 20
21.0
 30
0.0
 11
14.15000000000009
 21
-21.0
 31
0.0
  0
LINE
  5
10A9
330
1079
100
AcDbEntity
  8
本体
  6
Continuous
100
AcDbLine
 10
21.15000000000009
 20
21.0
 30
0.0
 11
21.15000000000009
 21
-21.0
 31
0.0
  0
LINE
  5
10AA
330
1079
100
AcDbEntity
  8
エンボス
  6
Continuous
100
AcDbLine
 10
21.15000000000009
 20
-12.5
 30
0.0
 11
14.15000000000009
 21
-14.5
 31
0.0
  0
LINE
  5
10AB
330
1079
100
AcDbEntity
  8
エンボス
  6
Continuous
100
AcDbLine
 10
14.15000000000009
 20
-17.5
 30
0.0
 11
21.15000000000009
 21
-19.5
 31
0.0
  0
LINE
  5
10AC
330
1079
100
AcDbEntity
  8
本体
  6
Continuous
100
AcDbLine
 10
-21.15000000000009
 20
21.0
 30
0.0
 11
14.15000000000009
 21
29.0
 31
0.0
  0
LINE
  5
10AD
330
1079
100
AcDbEntity
  8
エンボス
  6
Continuous
100
AcDbLine
 10
14.15000000000009
 20
1.5
 30
0.0
 11
21.15000000000009
 21
-0.5
 31
0.0
  0
LINE
  5
10AE
330
1079
100
AcDbEntity
  8
エンボス
  6
Continuous
100
AcDbLine
 10
14.15000000000009
 20
10.5
 30
0.0
 11
21.15000000000009
 21
8.5
 31
0.0
  0
LINE
  5
10AF
330
1079
100
AcDbEntity
  8
エンボス
  6
Continuous
100
AcDbLine
 10
21.15000000000009
 20
15.5
 30
0.0
 11
14.15000000000009
 21
13.5
 31
0.0
  0
LINE
  5
10B0
330
1079
100
AcDbEntity
  8
エンボス
  6
Continuous
100
AcDbLine
 10
21.15000000000009
 20
-53.5
 30
0.0
 11
14.15000000000009
 21
-55.5
 31
0.0
  0
LINE
  5
10B1
330
1079
100
AcDbEntity
  8
本体
  6
Continuous
100
AcDbLine
 10
14.15000000000009
 20
-29.0
 30
0.0
 11
14.15000000000009
 21
-71.0
 31
0.0
  0
LINE
  5
10B2
330
1079
100
AcDbEntity
  8
本体
  6
Continuous
100
AcDbLine
 10
21.15000000000009
 20
-29.0
 30
0.0
 11
21.15000000000009
 21
-71.0
 31
0.0
  0
LINE
  5
10B3
330
1079
100
AcDbEntity
  8
エンボス
  6
Continuous
100
AcDbLine
 10
21.15000000000009
 20
-62.5
 30
0.0
 11
14.15000000000009
 21
-64.5
 31
0.0
  0
LINE
  5
10B4
330
1079
100
AcDbEntity
  8
エンボス
  6
Continuous
100
AcDbLine
 10
14.15000000000009
 20
-67.5
 30
0.0
 11
21.15000000000009
 21
-69.5
 31
0.0
  0
LINE
  5
10B5
330
1079
100
AcDbEntity
  8
本体
  6
Continuous
100
AcDbLine
 10
-21.15000000000009
 20
-29.0
 30
0.0
 11
14.15000000000009
 21
-21.0
 31
0.0
  0
LINE
  5
10B6
330
1079
100
AcDbEntity
  8
エンボス
  6
Continuous
100
AcDbLine
 10
14.15000000000009
 20
-48.5
 30
0.0
 11
21.15000000000009
 21
-50.5
 31
0.0
  0
LINE
  5
10B7
330
1079
100
AcDbEntity
  8
エンボス
  6
Continuous
100
AcDbLine
 10
14.15000000000009
 20
-39.5
 30
0.0
 11
21.15000000000009
 21
-41.5
 31
0.0
  0
LINE
  5
10B8
330
1079
100
AcDbEntity
  8
エンボス
  6
Continuous
100
AcDbLine
 10
21.15000000000009
 20
-34.5
 30
0.0
 11
14.15000000000009
 21
-36.5
 31
0.0
  0
LINE
  5
10B9
330
1079
100
AcDbEntity
  8
エンボス
  6
Continuous
100
AcDbLine
 10
21.15000000000009
 20
-103.5
 30
0.0
 11
14.15000000000009
 21
-105.5
 31
0.0
  0
LINE
  5
10BA
330
1079
100
AcDbEntity
  8
本体
  6
Continuous
100
AcDbLine
 10
14.15000000000009
 20
-79.0
 30
0.0
 11
14.15000000000009
 21
-121.0
 31
0.0
  0
LINE
  5
10BB
330
1079
100
AcDbEntity
  8
本体
  6
Continuous
100
AcDbLine
 10
21.15000000000009
 20
-79.0
 30
0.0
 11
21.15000000000009
 21
-121.0
 31
0.0
  0
LINE
  5
10BC
330
1079
100
AcDbEntity
  8
エンボス
  6
Continuous
100
AcDbLine
 10
21.15000000000009
 20
-112.5
 30
0.0
 11
14.15000000000009
 21
-114.5
 31
0.0
  0
LINE
  5
10BD
330
1079
100
AcDbEntity
  8
エンボス
  6
Continuous
100
AcDbLine
 10
14.15000000000009
 20
-117.5
 30
0.0
 11
21.15000000000009
 21
-119.5
 31
0.0
  0
LINE
  5
10BE
330
1079
100
AcDbEntity
  8
本体
  6
Continuous
100
AcDbLine
 10
-21.15000000000009
 20
-79.0
 30
0.0
 11
14.15000000000009
 21
-71.0
 31
0.0
  0
LINE
  5
10BF
330
1079
100
AcDbEntity
  8
エンボス
  6
Continuous
100
AcDbLine
 10
14.15000000000009
 20
-98.50000000000001
 30
0.0
 11
21.15000000000009
 21
-100.5
 31
0.0
  0
LINE
  5
10C0
330
1079
100
AcDbEntity
  8
エンボス
  6
Continuous
100
AcDbLine
 10
14.15000000000009
 20
-89.50000000000001
 30
0.0
 11
21.15000000000009
 21
-91.5
 31
0.0
  0
LINE
  5
10C1
330
1079
100
AcDbEntity
  8
エンボス
  6
Continuous
100
AcDbLine
 10
21.15000000000009
 20
-84.50000000000001
 30
0.0
 11
14.15000000000009
 21
-86.5
 31
0.0
  0
LINE
  5
10C2
330
1079
100
AcDbEntity
  8
エンボス
  6
Continuous
100
AcDbLine
 10
21.15000000000009
 20
-153.5
 30
0.0
 11
14.15000000000009
 21
-155.5
 31
0.0
  0
LINE
  5
10C3
330
1079
100
AcDbEntity
  8
本体
  6
Continuous
100
AcDbLine
 10
14.15000000000009
 20
-129.0
 30
0.0
 11
14.15000000000009
 21
-171.0
 31
0.0
  0
LINE
  5
10C4
330
1079
100
AcDbEntity
  8
本体
  6
Continuous
100
AcDbLine
 10
21.15000000000009
 20
-129.0
 30
0.0
 11
21.15000000000009
 21
-171.0
 31
0.0
  0
LINE
  5
10C5
330
1079
100
AcDbEntity
  8
エンボス
  6
Continuous
100
AcDbLine
 10
21.15000000000009
 20
-162.5
 30
0.0
 11
14.15000000000009
 21
-164.5
 31
0.0
  0
LINE
  5
10C6
330
1079
100
AcDbEntity
  8
エンボス
  6
Continuous
100
AcDbLine
 10
14.15000000000009
 20
-167.5
 30
0.0
 11
21.15000000000009
 21
-169.5
 31
0.0
  0
LINE
  5
10C7
330
1079
100
AcDbEntity
  8
本体
  6
Continuous
100
AcDbLine
 10
-21.15000000000009
 20
-129.0
 30
0.0
 11
14.15000000000009
 21
-121.0
 31
0.0
  0
LINE
  5
10C8
330
1079
100
AcDbEntity
  8
エンボス
  6
Continuous
100
AcDbLine
 10
14.15000000000009
 20
-148.5
 30
0.0
 11
21.15000000000009
 21
-150.5
 31
0.0
  0
LINE
  5
10C9
330
1079
100
AcDbEntity
  8
エンボス
  6
Continuous
100
AcDbLine
 10
14.15000000000009
 20
-139.5
 30
0.0
 11
21.15000000000009
 21
-141.5
 31
0.0
  0
LINE
  5
10CA
330
1079
100
AcDbEntity
  8
エンボス
  6
Continuous
100
AcDbLine
 10
21.15000000000009
 20
-134.5
 30
0.0
 11
14.15000000000009
 21
-136.5
 31
0.0
  0
LINE
  5
10CB
330
1079
100
AcDbEntity
  8
本体
  6
Continuous
100
AcDbLine
 10
-21.15000000000009
 20
-179.0
 30
0.0
 11
14.15000000000009
 21
-171.0
 31
0.0
  0
LINE
  5
10CC
330
1079
100
AcDbEntity
  8
エンボス
  6
Continuous
100
AcDbLine
 10
14.15000000000009
 20
-167.5
 30
0.0
 11
21.15000000000009
 21
-169.5
 31
0.0
  0
ENDBLK
  5
107B
330
1079
100
AcDbEntity
  8
0
 48
3.0
100
AcDbBlockEnd
  0
BLOCK
  5
107D
330
107C
100
AcDbEntity
  8
0
 48
3.0
100
AcDbBlockBegin
  2
*U30
 70
     1
 10
0.0
 20
0.0
 30
0.0
  3
*U30
  1

  0
INSERT
  5
10D7
330
107C
100
AcDbEntity
  8
エンボス
  6
ByBlock
 62
     0
370
    -2
380
     1
100
AcDbBlockReference
  2
*U29
 10
0.0
 20
0.0
 30
0.0
  0
INSERT
  5
10D8
330
107C
100
AcDbEntity
  8
エンボス
  6
ByBlock
 62
     0
370
    -2
380
     1
100
AcDbBlockReference
  2
*U29
 10
35.3
 20
0.0
 30
0.0
  0
INSERT
  5
10D9
330
107C
100
AcDbEntity
  8
エンボス
  6
ByBlock
 62
     0
370
    -2
380
     1
100
AcDbBlockReference
  2
*U29
 10
70.59999999999999
 20
0.0
 30
0.0
  0
INSERT
  5
10DA
330
107C
100
AcDbEntity
  8
エンボス
  6
ByBlock
 62
     0
370
    -2
380
     1
100
AcDbBlockReference
  2
*U29
 10
105.9
 20
0.0
 30
0.0
  0
INSERT
  5
10DB
330
107C
100
AcDbEntity
  8
エンボス
  6
ByBlock
 62
     0
370
    -2
380
     1
100
AcDbBlockReference
  2
*U29
 10
141.2
 20
0.0
 30
0.0
  0
INSERT
  5
10DC
330
107C
100
AcDbEntity
  8
エンボス
  6
ByBlock
 62
     0
370
    -2
380
     1
100
AcDbBlockReference
  2
*U29
 10
176.5
 20
0.0
 30
0.0
  0
INSERT
  5
10DD
330
107C
100
AcDbEntity
  8
エンボス
  6
ByBlock
 62
     0
370
    -2
380
     1
100
AcDbBlockReference
  2
*U29
 10
211.8
 20
0.0
 30
0.0
  0
INSERT
  5
10DE
330
107C
100
AcDbEntity
  8
エンボス
  6
ByBlock
 62
     0
370
    -2
380
     1
100
AcDbBlockReference
  2
*U29
 10
247.1
 20
0.0
 30
0.0
  0
INSERT
  5
10DF
330
107C
100
AcDbEntity
  8
エンボス
  6
ByBlock
 62
     0
370
    -2
380
     1
100
AcDbBlockReference
  2
*U29
 10
282.4
 20
0.0
 30
0.0
  0
INSERT
  5
10E0
330
107C
100
AcDbEntity
  8
エンボス
  6
ByBlock
 62
     0
370
    -2
380
     1
100
AcDbBlockReference
  2
*U29
 10
317.7
 20
0.0
 30
0.0
  0
INSERT
  5
10E1
330
107C
100
AcDbEntity
  8
エンボス
  6
ByBlock
 62
     0
370
    -2
380
     1
100
AcDbBlockReference
  2
*U29
 10
353.0
 20
0.0
 30
0.0
  0
INSERT
  5
10E2
330
107C
100
AcDbEntity
  8
エンボス
  6
ByBlock
 62
     0
370
    -2
380
     1
100
AcDbBlockReference
  2
*U29
 10
388.3
 20
0.0
 30
0.0
  0
INSERT
  5
10E3
330
107C
100
AcDbEntity
  8
エンボス
  6
ByBlock
 62
     0
370
    -2
380
     1
100
AcDbBlockReference
  2
*U29
 10
423.5999999999999
 20
0.0
 30
0.0
  0
ENDBLK
  5
107E
330
107C
100
AcDbEntity
  8
0
 48
3.0
100
AcDbBlockEnd
  0
ENDSEC
  0
SECTION
  2
ENTITIES
  0
LINE
  5
12
330
2
100
AcDbEntity
  8
外枠
 48
80.0
370
     9
100
AcDbLine
 10
0.0
 20
0.0
 30
0.0
 11
2789.511161023067
 21
0.0
 31
0.0
  0
LINE
  5
13
330
2
100
AcDbEntity
  8
外枠
 48
80.0
370
     9
100
AcDbLine
 10
2789.511161023071
 20
1973.26911249564
 30
0.0
 11
0.0
 21
1973.26911249564
 31
0.0
  0
LINE
  5
14
330
2
100
AcDbEntity
  8
外枠
 48
100.0
370
     9
100
AcDbLine
 10
10.0
 20
10.0
 30
0.0
 11
2780.119625023061
 21
10.0
 31
0.0
  0
LINE
  5
17
330
2
100
AcDbEntity
  8
外枠
  6
Continuous
 48
100.0
370
     9
100
AcDbLine
 10
9.999999999996362
 20
155.3992728208031
 30
0.0
 11
2780.119625023061
 21
155.3992728207995
 31
0.0
  0
LINE
  5
18
330
2
100
AcDbEntity
  8
外枠
  6
Continuous
 48
100.0
370
     9
100
AcDbLine
 10
9.999999999996362
 20
160.0950408208045
 30
0.0
 11
2780.119625023061
 21
160.0950408207973
 31
0.0
  0
LINE
  5
19
330
2
100
AcDbEntity
  8
外枠
 48
100.0
370
     9
100
AcDbLine
 10
10.0
 20
1963.877576495633
 30
0.0
 11
2780.119625023053
 21
1963.877576495637
 31
0.0
  0
LINE
  5
1A
330
2
100
AcDbEntity
  8
外枠
 48
80.0
370
     9
100
AcDbLine
 10
0.0
 20
0.0
 30
0.0
 11
0.0
 21
1973.26911249564
 31
0.0
  0
LINE
  5
1B
330
2
100
AcDbEntity
  8
外枠
 48
100.0
370
     9
100
AcDbLine
 10
10.0
 20
1963.877576495633
 30
0.0
 11
10.0
 21
10.0
 31
0.0
  0
LINE
  5
1C
330
2
100
AcDbEntity
  8
外枠
  6
Continuous
 48
100.0
370
     9
100
AcDbLine
 10
10.0
 20
82.69963641040158
 30
0.0
 11
1153.530108552004
 21
82.69963641039794
 31
0.0
  0
MTEXT
  5
1E
330
2
100
AcDbEntity
  8
外枠
  6
Continuous
 48
100.0
370
     9
100
AcDbMText
 10
246.8574963386418
 20
64.81814764649607
 30
0.0
 40
35.0
 41
532.9183
 71
     1
 72
     5
  1
430\U+00D7501\U+00D750/110
 73
     1
 44
1.0
1001
ACAD
1000
MTEXTBEGIN
1070
    73
1070
     1
1070
    44
1040
1.0
1070
    74
1070
     0
1000
MTEXTEND
  0
MTEXT
  5
1F
330
2
100
AcDbEntity
  8
外枠
  6
Continuous
 48
100.0
370
     9
100
AcDbMText
 10
76.61659604009765
 20
137.3760680266387
 30
0.0
 40
30.0
 41
126.3036
 71
     1
 72
     5
  1
T-20
 73
     1
 44
1.0
1001
ACAD
1000
MTEXTBEGIN
1070
    73
1070
     1
1070
    44
1040
1.0
1070
    74
1070
     0
1000
MTEXTEND
  0
MTEXT
  5
20
330
2
100
AcDbEntity
  8
外枠
  6
Continuous
 48
100.0
370
     9
100
AcDbMText
 10
66.20419563166615
 20
59.95966632915224
 30
0.0
 40
35.0
 41
88.86979999999999
 71
     1
 72
     5
  1
TFKP
 73
     1
 44
1.0
1001
ACAD
1000
MTEXTBEGIN
1070
    73
1070
     1
1070
    44
1040
1.0
1070
    74
1070
     0
1000
MTEXTEND
  0
LINE
  5
21
330
2
100
AcDbEntity
  8
外枠
 48
100.0
370
     9
100
AcDbLine
 10
45.0
 20
155.3992728208031
 30
0.0
 11
45.0
 21
10.0
 31
0.0
  0
MTEXT
  5
22
330
2
100
AcDbEntity
  8
外枠
  6
Continuous
 48
100.0
370
     9
100
AcDbMText
 10
15.05670849094895
 20
75.82038473524153
 30
0.0
 40
20.0
 41
23.52947333656417
 71
     1
 72
     5
  1
品\P番
 73
     1
 44
1.0
1001
ACAD
1000
MTEXTBEGIN
1070
    73
1070
     1
1070
    44
1040
1.0
1070
    74
1070
     0
1000
MTEXTEND
  0
MTEXT
  5
23
330
2
100
AcDbEntity
  8
外枠
  6
Continuous
 48
100.0
370
     9
100
AcDbMText
 10
14.92010060012399
 20
149.3317229429121
 30
0.0
 40
20.0
 41
30.07989939987533
 71
     1
 72
     5
  1
荷\P重
 73
     1
 44
1.0
1001
ACAD
1000
MTEXTBEGIN
1070
    73
1070
     1
1070
    44
1040
1.0
1070
    74
1070
     0
1000
MTEXTEND
  0
LINE
  5
24
330
2
100
AcDbEntity
  8
外枠
 48
100.0
370
     9
100
AcDbLine
 10
179.1040495562847
 20
155.3992728208031
 30
0.0
 11
179.1040495562847
 21
10.0
 31
0.0
  0
MTEXT
  5
25
330
2
100
AcDbEntity
  8
外枠
  6
Continuous
 48
100.0
370
     9
100
AcDbMText
 10
271.7517807368968
 20
133.8572910967996
 30
0.0
 40
30.0
 41
271.6208
 71
     1
 72
     5
  1
300用
 73
     1
 44
1.0
1001
ACAD
1000
MTEXTBEGIN
1070
    73
1070
     1
1070
    44
1040
1.0
1070
    74
1070
     0
1000
MTEXTEND
  0
MTEXT
  5
26
330
2
100
AcDbEntity
  8
外枠
  6
Continuous
 48
100.0
370
     9
100
AcDbMText
 10
184.4346535744698
 20
149.3074501239389
 30
0.0
 40
20.0
 41
29.6694
 71
     1
 72
     5
  1
溝幅
 73
     1
 44
1.0
1001
ACAD
1000
MTEXTBEGIN
1070
    73
1070
     1
1070
    44
1040
1.0
1070
    74
1070
     0
1000
MTEXTEND
  0
LINE
  5
27
330
2
100
AcDbEntity
  8
外枠
 48
100.0
370
     9
100
AcDbLine
 10
214.1040495562847
 20
155.3992728208031
 30
0.0
 11
214.1040495562847
 21
82.69963641040158
 31
0.0
  0
MTEXT
  5
28
330
2
100
AcDbEntity
  8
外枠
  6
Continuous
 48
100.0
370
     9
100
AcDbMText
 10
477.8955451146976
 20
149.3074501239389
 30
0.0
 40
20.0
 41
29.6694
 71
     1
 72
     5
  1
品名
 73
     1
 44
1.0
1001
ACAD
1000
MTEXTBEGIN
1070
    73
1070
     1
1070
    44
1040
1.0
1070
    74
1070
     0
1000
MTEXTEND
  0
LINE
  5
29
330
2
100
AcDbEntity
  8
外枠
 48
100.0
370
     9
100
AcDbLine
 10
472.5649410965124
 20
155.3992728208031
 30
0.0
 11
472.5649410965124
 21
82.69963641040158
 31
0.0
  0
LINE
  5
2A
330
2
100
AcDbEntity
  8
外枠
 48
100.0
370
     9
100
AcDbLine
 10
507.5649410965125
 20
155.3992728208031
 30
0.0
 11
507.5649410965125
 21
82.69963641040158
 31
0.0
  0
MTEXT
  5
2B
330
2
100
AcDbEntity
  8
外枠
  6
Continuous
 48
100.0
370
     9
100
AcDbMText
 10
728.477887653953
 20
76.92551173516403
 30
0.0
 40
20.0
 41
664.6118999999999
 71
     1
 72
     5
  1
摘\P要
 73
     1
 44
1.0
1001
ACAD
1000
MTEXTBEGIN
1070
    73
1070
     1
1070
    44
1040
1.0
1070
    74
1070
     0
1000
MTEXTEND
  0
LINE
  5
2C
330
2
100
AcDbEntity
  8
外枠
 48
100.0
370
     9
100
AcDbLine
 10
723.8282373115871
 20
82.6996364103943
 30
0.0
 11
723.8282373115871
 21
9.999999999992724
 31
0.0
  0
LINE
  5
2F
330
2
100
AcDbEntity
  8
外枠
 48
100.0
370
     9
100
AcDbLine
 10
758.8282373115871
 20
82.6996364103943
 30
0.0
 11
758.8282373115871
 21
9.999999999992724
 31
0.0
  0
LINE
  5
31
330
2
100
AcDbEntity
  8
外枠
 48
100.0
370
     9
100
AcDbLine
 10
974.9513069700951
 20
82.6996364103943
 30
0.0
 11
974.9513069700951
 21
9.999999999992724
 31
0.0
  0
MTEXT
  5
32
330
2
100
AcDbEntity
  8
外枠
  6
Continuous
 48
100.0
370
     9
100
AcDbMText
 10
979.7329598959768
 20
74.84825461820583
 30
0.0
 40
20.0
 41
31.38947761565365
 71
     1
 72
     5
  1
材\P質
 73
     1
 44
1.0
1001
ACAD
1000
MTEXTBEGIN
1070
    73
1070
     1
1070
    44
1040
1.0
1070
    74
1070
     0
1000
MTEXTEND
  0
LINE
  5
33
330
2
100
AcDbEntity
  8
外枠
 48
100.0
370
     9
100
AcDbLine
 10
1009.951306970095
 20
82.6996364103943
 30
0.0
 11
1009.951306970095
 21
9.999999999992724
 31
0.0
  0
LINE
  5
37
330
2
100
AcDbEntity
  8
外枠
 48
80.0
370
     9
100
AcDbLine
 10
2789.511161023067
 20
0.0
 30
0.0
 11
2789.511161023071
 21
1973.26911249564
 31
0.0
  0
LINE
  5
38
330
2
100
AcDbEntity
  8
外枠
 48
100.0
370
     9
100
AcDbLine
 10
2780.119625023053
 20
1963.877576495637
 30
0.0
 11
2780.119625023061
 21
10.0
 31
0.0
  0
LINE
  5
3A
330
2
100
AcDbEntity
  8
外枠
 48
3.0
100
AcDbLine
 10
1607.072254912545
 20
61.67068719952067
 30
0.0
 11
2262.173600934632
 21
61.67068719952067
 31
0.0
  0
MTEXT
  5
3B
330
2
100
AcDbEntity
  8
外枠
  6
Continuous
 48
100.0
370
     9
100
AcDbMText
 10
1683.622173868318
 20
50.71504764095289
 30
0.0
 40
30.00024
 41
539.4827578564582
 71
     1
 72
     5
  1
T A K A R A   G R A T I N G
 73
     1
 44
1.0
1001
ACAD
1000
MTEXTBEGIN
1070
    73
1070
     1
1070
    44
1040
1.0
1070
    74
1070
     0
1000
MTEXTEND
  0
MTEXT
  5
3C
330
2
100
AcDbEntity
  8
外枠
  6
Continuous
 48
100.0
370
     9
100
AcDbMText
 10
1728.02061463669
 20
127.1672938476838
 30
0.0
 40
30.0
 41
282.8297
 71
     1
 72
     5
  1
株 式 会 社
 73
     1
 44
1.0
1001
ACAD
1000
MTEXTBEGIN
1070
    73
1070
     1
1070
    44
1040
1.0
1070
    74
1070
     0
1000
MTEXTEND
  0
LINE
  5
3D
330
2
100
AcDbEntity
  8
外枠
  6
Continuous
 48
100.0
370
     9
100
AcDbLine
 10
1508.680137877982
 20
155.3992728208068
 30
0.0
 11
1508.680137877982
 21
10.00000000000364
 31
0.0
  0
LINE
  5
3E
330
2
100
AcDbEntity
  8
外枠
  6
Continuous
 48
100.0
370
     9
100
AcDbLine
 10
1593.95141853916
 20
155.3992728207995
 30
0.0
 11
1593.95141853916
 21
9.999999999996362
 31
0.0
  0
LINE
  5
3F
330
2
100
AcDbEntity
  8
外枠
  6
Continuous
 48
100.0
370
     9
100
AcDbLine
 10
1616.777813337499
 20
106.634063069062
 30
0.0
 11
1612.463999974505
 21
110.08511375945
 31
0.0
  0
LINE
  5
40
330
2
100
AcDbEntity
  8
外枠
  6
Continuous
 48
100.0
370
     9
100
AcDbLine
 10
1616.777813337499
 20
106.634063069062
 30
0.0
 11
1612.463999974505
 21
103.183012378663
 31
0.0
  0
LINE
  5
41
330
2
100
AcDbEntity
  8
外枠
  6
Continuous
 48
100.0
370
     9
100
AcDbLine
 10
1616.777813337505
 20
113.5361644498489
 30
0.0
 11
1612.463999974505
 21
110.08511375945
 31
0.0
  0
LINE
  5
42
330
2
100
AcDbEntity
  8
外枠
  6
Continuous
 48
100.0
370
     9
100
AcDbLine
 10
1616.777813337499
 20
99.73196168827508
 30
0.0
 11
1612.463999974505
 21
103.183012378663
 31
0.0
  0
MTEXT
  5
43
330
2
100
AcDbEntity
  8
外枠
  6
Continuous
 48
100.0
370
     9
100
AcDbMText
 10
1520.476936402745
 20
137.4995509975779
 30
0.0
 40
20.0
 41
1015.1375
 71
     1
 72
     5
  1
18.8
 73
     1
 44
1.0
1001
ACAD
1000
MTEXTBEGIN
1070
    73
1070
     1
1070
    44
1040
1.0
1070
    74
1070
     0
1000
MTEXTEND
  0
MTEXT
  5
44
330
2
100
AcDbEntity
  8
外枠
  6
Continuous
 48
100.0
370
     9
100
AcDbMText
 10
1568.464698185987
 20
108.4136993179927
 30
0.0
 40
18.0
 41
25.456
 71
     1
 72
     5
  1
kg
 73
     1
 44
1.0
1001
ACAD
1000
MTEXTBEGIN
1070
    73
1070
     1
1070
    44
1040
1.0
1070
    74
1070
     0
1000
MTEXTEND
  0
LINE
  5
45
330
2
100
AcDbEntity
  8
外枠
  6
Continuous
 48
100.0
370
     9
100
AcDbLine
 10
1649.122643507042
 20
139.4120285854742
 30
0.0
 11
1653.436456870031
 21
135.9609778950862
 31
0.0
  0
LINE
  5
46
330
2
100
AcDbEntity
  8
外枠
  6
Continuous
 48
100.0
370
     9
100
AcDbLine
 10
1666.377896959009
 20
139.4120285854742
 30
0.0
 11
1662.06408359602
 21
135.9609778950862
 31
0.0
  0
MTEXT
  5
47
330
2
100
AcDbEntity
  8
外枠
  6
Continuous
 48
100.0
370
     9
100
AcDbMText
 10
1642.840555134189
 20
120.8184913847756
 30
0.0
 40
23.95393639053264
 41
23.85059431815661
 71
     1
 72
     5
  1
{\fＭＳ ゴシック|b0|i0|c128|p49;宝}
 73
     1
 44
1.0
1001
ACAD
1000
MTEXTBEGIN
1070
    73
1070
     1
1070
    44
1040
1.0
1070
    74
1070
     0
1000
MTEXTEND
  0
LINE
  5
48
330
2
100
AcDbEntity
  8
外枠
  6
Continuous
 48
100.0
370
     9
100
AcDbLine
 10
1662.06408359602
 20
135.9609778950862
 30
0.0
 11
1694.408913765557
 21
110.08511375945
 31
0.0
  0
LINE
  5
49
330
2
100
AcDbEntity
  8
外枠
  6
Continuous
 48
100.0
370
     9
100
AcDbLine
 10
1657.750270233026
 20
132.5099272046927
 30
0.0
 11
1690.095100402563
 21
106.634063069062
 31
0.0
  0
LINE
  5
4A
330
2
100
AcDbEntity
  8
外枠
  6
Continuous
 48
100.0
370
     9
100
AcDbLine
 10
1690.095100402563
 20
106.634063069062
 30
0.0
 11
1657.750270233026
 21
80.75819893343123
 31
0.0
  0
LINE
  5
4B
330
2
100
AcDbEntity
  8
外枠
  6
Continuous
 48
100.0
370
     9
100
AcDbLine
 10
1694.408913765557
 20
103.183012378663
 30
0.0
 11
1662.06408359602
 21
77.30714824303777
 31
0.0
  0
LINE
  5
4C
330
2
100
AcDbEntity
  8
外枠
  6
Continuous
 48
100.0
370
     9
100
AcDbLine
 10
1657.750270233026
 20
80.75819893342577
 30
0.0
 11
1625.405440063488
 21
106.634063069062
 31
0.0
  0
LINE
  5
4D
330
2
100
AcDbEntity
  8
外枠
  6
Continuous
 48
100.0
370
     9
100
AcDbLine
 10
1653.436456870031
 20
77.30714824303777
 30
0.0
 11
1621.0916267005
 21
103.183012378663
 31
0.0
  0
LINE
  5
4E
330
2
100
AcDbEntity
  8
外枠
  6
Continuous
 48
100.0
370
     9
100
AcDbLine
 10
1621.0916267005
 20
103.183012378663
 30
0.0
 11
1616.777813337505
 21
99.73196168827508
 31
0.0
  0
LINE
  5
4F
330
2
100
AcDbEntity
  8
外枠
  6
Continuous
 48
100.0
370
     9
100
AcDbLine
 10
1653.436456870031
 20
77.30714824303777
 30
0.0
 11
1649.122643507042
 21
73.85609755263885
 31
0.0
  0
LINE
  5
50
330
2
100
AcDbEntity
  8
外枠
  6
Continuous
 48
100.0
370
     9
100
AcDbLine
 10
1653.436456870031
 20
70.4050468622454
 30
0.0
 11
1649.122643507042
 21
73.85609755263885
 31
0.0
  0
LINE
  5
51
330
2
100
AcDbEntity
  8
外枠
  6
Continuous
 48
100.0
370
     9
100
AcDbLine
 10
1657.750270233026
 20
73.85609755263885
 30
0.0
 11
1653.436456870031
 21
70.4050468622454
 31
0.0
  0
LINE
  5
52
330
2
100
AcDbEntity
  8
外枠
  6
Continuous
 48
100.0
370
     9
100
AcDbLine
 10
1666.377896959009
 20
73.85609755263885
 30
0.0
 11
1662.06408359602
 21
70.4050468622454
 31
0.0
  0
LINE
  5
53
330
2
100
AcDbEntity
  8
外枠
  6
Continuous
 48
100.0
370
     9
100
AcDbLine
 10
1662.06408359602
 20
70.4050468622454
 30
0.0
 11
1657.750270233026
 21
73.85609755263885
 31
0.0
  0
LINE
  5
54
330
2
100
AcDbEntity
  8
外枠
  6
Continuous
 48
100.0
370
     9
100
AcDbLine
 10
1666.377896959009
 20
73.85609755263885
 30
0.0
 11
1662.06408359602
 21
77.30714824303777
 31
0.0
  0
LINE
  5
55
330
2
100
AcDbEntity
  8
外枠
  6
Continuous
 48
100.0
370
     9
100
AcDbLine
 10
1657.750270233026
 20
132.5099272046927
 30
0.0
 11
1625.405440063483
 21
106.634063069062
 31
0.0
  0
LINE
  5
56
330
2
100
AcDbEntity
  8
外枠
  6
Continuous
 48
100.0
370
     9
100
AcDbLine
 10
1653.436456870031
 20
135.9609778950862
 30
0.0
 11
1621.0916267005
 21
110.08511375945
 31
0.0
  0
LINE
  5
57
330
2
100
AcDbEntity
  8
外枠
  6
Continuous
 48
100.0
370
     9
100
AcDbLine
 10
1621.0916267005
 20
110.08511375945
 30
0.0
 11
1616.777813337505
 21
113.5361644498489
 31
0.0
  0
LINE
  5
58
330
2
100
AcDbEntity
  8
外枠
  6
Continuous
 48
100.0
370
     9
100
AcDbLine
 10
1694.408913765557
 20
103.183012378663
 30
0.0
 11
1698.722727128541
 21
99.73196168827508
 31
0.0
  0
LINE
  5
59
330
2
100
AcDbEntity
  8
外枠
  6
Continuous
 48
100.0
370
     9
100
AcDbLine
 10
1703.036540491541
 20
103.183012378663
 30
0.0
 11
1698.722727128541
 21
99.73196168827508
 31
0.0
  0
LINE
  5
5A
330
2
100
AcDbEntity
  8
外枠
  6
Continuous
 48
100.0
370
     9
100
AcDbLine
 10
1698.722727128541
 20
113.5361644498489
 30
0.0
 11
1694.408913765557
 21
110.08511375945
 31
0.0
  0
LINE
  5
5B
330
2
100
AcDbEntity
  8
外枠
  6
Continuous
 48
100.0
370
     9
100
AcDbLine
 10
1698.722727128541
 20
106.634063069062
 30
0.0
 11
1703.036540491541
 21
103.183012378663
 31
0.0
  0
LINE
  5
5C
330
2
100
AcDbEntity
  8
外枠
  6
Continuous
 48
100.0
370
     9
100
AcDbLine
 10
1698.722727128541
 20
113.5361644498489
 30
0.0
 11
1703.036540491541
 21
110.08511375945
 31
0.0
  0
LINE
  5
5D
330
2
100
AcDbEntity
  8
外枠
  6
Continuous
 48
100.0
370
     9
100
AcDbLine
 10
1703.036540491541
 20
110.08511375945
 30
0.0
 11
1698.722727128541
 21
106.634063069062
 31
0.0
  0
LINE
  5
5E
330
2
100
AcDbEntity
  8
外枠
  6
Continuous
 48
100.0
370
     9
100
AcDbLine
 10
1653.436456870031
 20
142.8630792758676
 30
0.0
 11
1649.122643507042
 21
139.4120285854742
 31
0.0
  0
LINE
  5
5F
330
2
100
AcDbEntity
  8
外枠
  6
Continuous
 48
100.0
370
     9
100
AcDbLine
 10
1662.06408359602
 20
142.8630792758676
 30
0.0
 11
1666.377896959009
 21
139.4120285854742
 31
0.0
  0
LINE
  5
60
330
2
100
AcDbEntity
  8
外枠
  6
Continuous
 48
100.0
370
     9
100
AcDbLine
 10
1653.436456870031
 20
142.8630792758676
 30
0.0
 11
1657.750270233026
 21
139.4120285854742
 31
0.0
  0
LINE
  5
61
330
2
100
AcDbEntity
  8
外枠
  6
Continuous
 48
100.0
370
     9
100
AcDbLine
 10
1662.06408359602
 20
142.8630792758676
 30
0.0
 11
1657.750270233026
 21
139.4120285854742
 31
0.0
  0
MTEXT
  5
62
330
2
100
AcDbEntity
  8
外枠
  6
Continuous
 48
100.0
370
     9
100
AcDbMText
 10
1982.246612759803
 20
141.5312822365363
 30
0.0
 40
50.0
 41
269.1378
 71
     1
 72
     5
  1
宝 機 材
 73
     1
 44
1.0
1001
ACAD
1000
MTEXTBEGIN
1070
    73
1070
     1
1070
    44
1040
1.0
1070
    74
1070
     0
1000
MTEXTEND
  0
INSERT
  5
63
330
2
100
AcDbEntity
  8
0
100
AcDbBlockReference
  2
GIB詳細
 10
2565.418449883758
 20
297.722523113778
 30
0.0
  0
LINE
  5
AB
330
2
100
AcDbEntity
  8
外枠
  6
Continuous
 48
100.0
370
     9
100
AcDbLine
 10
2694.775480668144
 20
78.59726492113622
 30
0.0
 11
2729.639779322774
 21
43.73296626650699
 31
0.0
  0
LINE
  5
AC
330
2
100
AcDbEntity
  8
外枠
  6
Continuous
 48
100.0
370
     9
100
AcDbLine
 10
2729.639779322774
 20
113.4615635757691
 30
0.0
 11
2694.775480668144
 21
78.59726492113622
 31
0.0
  0
LINE
  5
AE
330
2
100
AcDbEntity
  8
外枠
  6
Continuous
 48
100.0
370
     9
100
AcDbLine
 10
2271.730765417811
 20
155.3992728207995
 30
0.0
 11
2271.730765417811
 21
10.0
 31
0.0
  0
LINE
  5
AF
330
2
100
AcDbEntity
  8
外枠
  6
Continuous
 48
100.0
370
     9
100
AcDbLine
 10
2387.385592047314
 20
155.3992728207995
 30
0.0
 11
2387.385592047314
 21
9.999999999996362
 31
0.0
  0
MTEXT
  5
B0
330
2
100
AcDbEntity
  8
外枠
  6
Continuous
 48
100.0
370
     9
100
AcDbMText
 10
2518.897970034654
 20
80.52451510381798
 30
0.0
 40
16.435188
 41
274.138099993296
 71
     1
 72
     5
  1
縮尺（A4用紙)
 73
     1
 44
1.0
1001
ACAD
1000
MTEXTBEGIN
1070
    73
1070
     1
1070
    44
1040
1.0
1070
    74
1070
     0
1000
MTEXTEND
  0
LINE
  5
B1
330
2
100
AcDbEntity
  8
外枠
  6
Continuous
 48
100.0
370
     9
100
AcDbLine
 10
2503.04041867681
 20
155.3992728207995
 30
0.0
 11
2503.04041867681
 21
9.999999999996362
 31
0.0
  0
LINE
  5
B2
330
2
100
AcDbEntity
  8
外枠
  6
Continuous
 48
100.0
370
     9
100
AcDbLine
 10
2676.662359028593
 20
155.3992728207995
 30
0.0
 11
2676.662359028593
 21
10.0
 31
0.0
  0
MTEXT
  5
B3
330
2
100
AcDbEntity
  8
外枠
  6
Continuous
 48
100.0
370
     9
100
AcDbMText
 10
2557.587330290393
 20
42.24161905183791
 30
0.0
 40
23.47884
 41
274.138099993296
 71
     1
 72
     5
  1
1：10
 73
     1
 44
1.0
1001
ACAD
1000
MTEXTBEGIN
1070
    73
1070
     1
1070
    44
1040
1.0
1070
    74
1070
     0
1000
MTEXTEND
  0
MTEXT
  5
B4
330
2
100
AcDbEntity
  8
外枠
  6
Continuous
 48
100.0
370
     9
100
AcDbMText
 10
2280.290404386422
 20
149.5129012429788
 30
0.0
 40
18.783072
 41
274.13809060176
 71
     1
 72
     5
  1
Check
 73
     1
 44
1.0
1001
ACAD
1000
MTEXTBEGIN
1070
    73
1070
     1
1070
    44
1040
1.0
1070
    74
1070
     0
1000
MTEXTEND
  0
MTEXT
  5
B5
330
2
100
AcDbEntity
  8
外枠
  6
Continuous
 48
100.0
370
     9
100
AcDbMText
 10
2398.03460165154
 20
149.5129012429788
 30
0.0
 40
18.783072
 41
274.13809060176
 71
     1
 72
     5
  1
Draw
 73
     1
 44
1.0
1001
ACAD
1000
MTEXTBEGIN
1070
    73
1070
     1
1070
    44
1040
1.0
1070
    74
1070
     0
1000
MTEXTEND
  0
LINE
  5
B7
330
2
100
AcDbEntity
  8
外枠
  6
Continuous
 48
100.0
370
     9
100
AcDbLine
 10
2676.662359028593
 20
85.04752041039683
 30
0.0
 11
2503.04041867681
 21
85.04752041039683
 31
0.0
  0
MTEXT
  5
B8
330
2
100
AcDbEntity
  8
外枠
  6
Continuous
 48
100.0
370
     9
100
AcDbMText
 10
2518.897970034654
 20
153.7304166203976
 30
0.0
 40
16.435188
 41
274.138099993296
 71
     1
 72
     5
  1
図面作成日
 73
     1
 44
1.0
1001
ACAD
1000
MTEXTBEGIN
1070
    73
1070
     1
1070
    44
1040
1.0
1070
    74
1070
     0
1000
MTEXTEND
  0
LINE
  5
BA
330
2
100
AcDbEntity
  8
外枠
  6
Continuous
 48
100.0
370
     9
100
AcDbLine
 10
2729.639779322774
 20
43.73296626650699
 30
0.0
 11
2764.504077977396
 21
78.59726492113622
 31
0.0
  0
LINE
  5
BB
330
2
100
AcDbEntity
  8
外枠
  6
Continuous
 48
100.0
370
     9
100
AcDbLine
 10
2764.504077977396
 20
78.59726492113622
 30
0.0
 11
2729.639779322774
 21
113.4615635757691
 31
0.0
  0
LINE
  5
F1
330
2
100
AcDbEntity
  8
本体
  6
Continuous
100
AcDbLine
 10
936.9070084567656
 20
732.4863152268862
 30
0.0
 11
965.007008456766
 21
740.4297781244126
 31
0.0
  0
LINE
  5
F3
330
2
100
AcDbEntity
  8
本体
  6
Continuous
100
AcDbLine
 10
936.9070084567656
 20
732.4863152268862
 30
0.0
 11
965.007008456766
 21
732.4863152268862
 31
0.0
  0
LINE
  5
F4
330
2
100
AcDbEntity
  8
本体
  6
Continuous
100
AcDbLine
 10
936.9070084567656
 20
740.4863152268863
 30
0.0
 11
965.2070084567657
 21
740.4863152268863
 31
0.0
  0
LINE
  5
F5
102
{ACAD_REACTORS
330
320
102
}
330
2
100
AcDbEntity
  8
嵩上断面
  6
Continuous
100
AcDbLine
 10
969.0070084567659
 20
635.4863152268863
 30
0.0
 11
474.007008456766
 21
635.4863152268863
 31
0.0
  0
LINE
  5
F6
330
2
100
AcDbEntity
  8
嵩上断面
  6
Continuous
100
AcDbLine
 10
474.007008456766
 20
635.4863152268863
 30
0.0
 11
474.007008456766
 21
690.4863152268863
 31
0.0
  0
LINE
  5
F7
330
2
100
AcDbEntity
  8
嵩上断面
  6
Continuous
100
AcDbLine
 10
474.007008456766
 20
690.4863152268863
 30
0.0
 11
972.0070084567661
 21
690.4863152268863
 31
0.0
  0
LINE
  5
F8
330
2
100
AcDbEntity
  8
嵩上断面
  6
HIDDEN
 48
3.0
100
AcDbLine
 10
474.007008456766
 20
688.1863152268859
 30
0.0
 11
969.0070084567659
 21
688.1863152268859
 31
0.0
  0
LINE
  5
FA
330
2
100
AcDbEntity
  8
嵩上断面
  6
HIDDEN
 48
3.0
100
AcDbLine
 10
474.007008456766
 20
637.7863152268861
 30
0.0
 11
969.0070084567659
 21
637.7863152268861
 31
0.0
  0
LINE
  5
FB
330
2
100
AcDbEntity
  8
本体
  6
Continuous
100
AcDbLine
 10
1909.936963014384
 20
1674.570393950034
 30
0.0
 11
1909.936963014384
 21
1244.570393950034
 31
0.0
  0
LINE
  5
FC
330
2
100
AcDbEntity
  8
本体
  6
Continuous
100
AcDbLine
 10
1917.936963014384
 20
1670.070393950034
 30
0.0
 11
1917.936963014384
 21
1249.070393950034
 31
0.0
  0
LINE
  5
FD
330
2
100
AcDbEntity
  8
本体
  6
Continuous
100
AcDbLine
 10
1959.936963014385
 20
1670.070393950034
 30
0.0
 11
1959.936963014385
 21
1249.070393950034
 31
0.0
  0
LINE
  5
FE
330
2
100
AcDbEntity
  8
本体
  6
Continuous
100
AcDbLine
 10
1951.936963014384
 20
1670.070393950034
 30
0.0
 11
1951.936963014385
 21
1249.070393950034
 31
0.0
  0
LINE
  5
FF
330
2
100
AcDbEntity
  8
本体
  6
Continuous
100
AcDbLine
 10
1909.936963014384
 20
1674.570393950034
 30
0.0
 11
1947.936963014385
 21
1674.570393950034
 31
0.0
  0
LINE
  5
100
330
2
100
AcDbEntity
  8
本体
  6
Continuous
100
AcDbLine
 10
1909.936963014384
 20
1670.070393950034
 30
0.0
 11
1959.936963014385
 21
1670.070393950034
 31
0.0
  0
LINE
  5
101
330
2
100
AcDbEntity
  8
本体
  6
Continuous
100
AcDbLine
 10
1909.936963014384
 20
1249.070393950034
 30
0.0
 11
1959.936963014385
 21
1249.070393950034
 31
0.0
  0
LINE
  5
102
330
2
100
AcDbEntity
  8
本体
  6
Continuous
100
AcDbLine
 10
1909.936963014384
 20
1244.570393950034
 30
0.0
 11
1947.936963014385
 21
1244.570393950034
 31
0.0
  0
INSERT
  5
103
330
2
100
AcDbEntity
  8
本体
  6
Continuous
100
AcDbBlockReference
  2
TB8
 10
1909.936963014384
 20
1584.570393950034
 30
0.0
  0
INSERT
  5
10C
330
2
100
AcDbEntity
  8
本体
  6
Continuous
100
AcDbBlockReference
  2
TB8
 10
1909.936963014384
 20
1484.570393950034
 30
0.0
  0
INSERT
  5
10D
330
2
100
AcDbEntity
  8
本体
  6
Continuous
100
AcDbBlockReference
  2
TB8
 10
1909.936963014384
 20
1284.570393950034
 30
0.0
  0
DIMENSION
  5
10E
330
2
100
AcDbEntity
  8
寸法線
  6
Continuous
100
AcDbDimension
  2
*D5
 10
1749.936963014384
 20
1244.570393950034
 30
0.0
 11
1729.936963014384
 21
1459.570393950034
 31
0.0
 70
    32
 71
     5
 42
430.0
  3
ISO-25
100
AcDbAlignedDimension
 13
1909.936963014384
 23
1674.570393950034
 33
0.0
 14
1909.936963014384
 24
1244.570393950034
 34
0.0
 50
90.0
100
AcDbRotatedDimension
  0
LINE
  5
134
330
2
100
AcDbEntity
  8
本体
100
AcDbLine
 10
471.007008456766
 20
740.4863152268863
 30
0.0
 11
478.007008456766
 21
740.4863152268863
 31
0.0
  0
LINE
  5
135
330
2
100
AcDbEntity
  8
本体
100
AcDbLine
 10
471.007008456766
 20
740.4863152268863
 30
0.0
 11
471.007008456766
 21
730.4863152268863
 31
0.0
  0
LINE
  5
136
330
2
100
AcDbEntity
  8
本体
100
AcDbLine
 10
471.007008456766
 20
730.4863152268863
 30
0.0
 11
472.507008456766
 21
729.4863152268862
 31
0.0
  0
LINE
  5
137
330
2
100
AcDbEntity
  8
本体
100
AcDbLine
 10
478.007008456766
 20
740.4863152268863
 30
0.0
 11
478.007008456766
 21
730.4863152268863
 31
0.0
  0
LINE
  5
138
330
2
100
AcDbEntity
  8
本体
100
AcDbLine
 10
478.007008456766
 20
730.4863152268863
 30
0.0
 11
476.507008456766
 21
729.4863152268862
 31
0.0
  0
LINE
  5
139
330
2
100
AcDbEntity
  8
本体
100
AcDbLine
 10
471.007008456766
 20
690.4863152268863
 30
0.0
 11
478.007008456766
 21
690.4863152268863
 31
0.0
  0
LINE
  5
13A
330
2
100
AcDbEntity
  8
本体
100
AcDbLine
 10
471.007008456766
 20
690.4863152268863
 30
0.0
 11
471.007008456766
 21
700.4863152268862
 31
0.0
  0
LINE
  5
13B
330
2
100
AcDbEntity
  8
本体
100
AcDbLine
 10
471.007008456766
 20
700.4863152268862
 30
0.0
 11
472.507008456766
 21
701.4863152268863
 31
0.0
  0
LINE
  5
13C
330
2
100
AcDbEntity
  8
本体
100
AcDbLine
 10
478.007008456766
 20
690.4863152268863
 30
0.0
 11
478.007008456766
 21
700.4863152268862
 31
0.0
  0
LINE
  5
13D
330
2
100
AcDbEntity
  8
本体
100
AcDbLine
 10
478.007008456766
 20
700.4863152268862
 30
0.0
 11
476.507008456766
 21
701.4863152268863
 31
0.0
  0
LINE
  5
13E
330
2
100
AcDbEntity
  8
本体
100
AcDbLine
 10
472.507008456766
 20
729.4863152268862
 30
0.0
 11
472.507008456766
 21
701.4863152268863
 31
0.0
  0
LINE
  5
13F
330
2
100
AcDbEntity
  8
本体
100
AcDbLine
 10
476.507008456766
 20
729.4863152268862
 30
0.0
 11
476.507008456766
 21
701.4863152268863
 31
0.0
  0
LEADER
  5
140
330
2
100
AcDbEntity
  8
寸法線
  6
Continuous
100
AcDbLeader
  3
ISO-25
 73
     0
 74
     0
 75
     1
 40
30.0
 41
171.472081218274
 76
     3
 10
969.2162555631439
 20
1674.570393950034
 30
0.0
 10
1024.926933681799
 20
1740.781072068689
 30
0.0
 10
1039.926933681799
 20
1740.781072068689
 30
0.0
340
141
1001
ACAD
1000
DSTYLE
1002
{
1070
     5
1000
OPEN30
1070
    77
1070
     1
1070
   147
1040
0.5
1070
   342
1005
110
1002
}
  0
MTEXT
  5
141
102
{ACAD_REACTORS
330
140
102
}
330
2
100
AcDbEntity
  8
寸法線
  6
Continuous
100
AcDbMText
 10
1044.926933681799
 20
1745.781072068689
 30
0.0
 40
30.0
 41
0.0
 71
     7
 72
     1
  1
FB4.5\U+00D738
 73
     1
 44
1.0
1001
ACAD
1000
MTEXTBEGIN
1070
    73
1070
     1
1070
    44
1040
1.0
1070
    74
1070
     0
1000
MTEXTEND
  0
DIMENSION
  5
142
330
2
100
AcDbEntity
  8
寸法線
  6
Continuous
100
AcDbDimension
  2
*D6
 10
1162.007008456766
 20
630.4863152268867
 30
0.0
 11
1142.007008456766
 21
685.4863152268866
 31
0.0
 70
    32
 71
     5
 42
109.9999999999994
  3
ISO-25
100
AcDbAlignedDimension
 13
972.0070084567661
 23
740.4863152268862
 33
0.0
 14
969.0070084567659
 24
630.4863152268867
 34
0.0
 50
90.0
100
AcDbRotatedDimension
  0
DIMENSION
  5
14F
330
2
100
AcDbEntity
  8
寸法線
  6
Continuous
100
AcDbDimension
  2
*D7
 10
2099.936965014384
 20
1254.570392950034
 30
0.0
 11
2079.936965014384
 21
1459.570393950034
 31
0.0
 70
    32
 71
     5
 42
410.000002
  3
ISO-25
100
AcDbAlignedDimension
 13
2014.936960014384
 23
1664.570394950034
 33
0.0
 14
2014.936960014384
 24
1254.570392950034
 34
0.0
 50
90.0
100
AcDbRotatedDimension
  0
LEADER
  5
15C
330
2
100
AcDbEntity
  8
寸法線
  6
Continuous
100
AcDbLeader
  3
ISO-25
 73
     0
 74
     0
 75
     1
 40
31.82741116751269
 41
385.4314720812182
 76
     3
 10
1973.37491403273
 20
1664.570394950034
 30
0.0
 10
2039.085592151385
 20
1740.281073068689
 30
0.0
 10
2054.085592151385
 20
1740.281073068689
 30
0.0
340
15D
1001
ACAD
1000
DSTYLE
1002
{
1070
     5
1000
OPEN30
1070
    77
1070
     1
1070
   147
1040
0.5
1070
   342
1005
110
1002
}
  0
MTEXT
  5
15D
102
{ACAD_REACTORS
330
15C
102
}
330
2
100
AcDbEntity
  8
寸法線
  6
Continuous
100
AcDbMText
 10
2059.085592151385
 20
1745.281073068689
 30
0.0
 40
30.0
 41
0.0
 71
     7
 72
     1
  1
P2.3\U+00D755\U+00D740+HGRゴム
 73
     1
 44
1.0
1001
ACAD
1000
MTEXTBEGIN
1070
    73
1070
     1
1070
    44
1040
1.0
1070
    74
1070
     0
1000
MTEXTEND
  0
LINE
  5
15E
330
2
100
AcDbEntity
  8
本体
  6
Continuous
100
AcDbLine
 10
471.007008456766
 20
1674.570393950034
 30
0.0
 11
972.0070084567661
 21
1674.570393950034
 31
0.0
  0
LINE
  5
15F
330
2
100
AcDbEntity
  8
本体
  6
Continuous
100
AcDbLine
 10
471.007008456766
 20
1670.070393950034
 30
0.0
 11
972.0070084567661
 21
1670.070393950034
 31
0.0
  0
LINE
  5
160
330
2
100
AcDbEntity
  8
本体
  6
Continuous
100
AcDbLine
 10
471.007008456766
 20
1638.570393950034
 30
0.0
 11
972.0070084567661
 21
1638.570393950034
 31
0.0
  0
LINE
  5
161
330
2
100
AcDbEntity
  8
本体
  6
Continuous
100
AcDbLine
 10
471.007008456766
 20
1630.570393950034
 30
0.0
 11
972.0070084567661
 21
1630.570393950034
 31
0.0
  0
LINE
  5
166
330
2
100
AcDbEntity
  8
本体
  6
Continuous
100
AcDbLine
 10
471.007008456766
 20
1674.570393950034
 30
0.0
 11
471.007008456766
 21
1244.570393950034
 31
0.0
  0
LINE
  5
167
330
2
100
AcDbEntity
  8
本体
  6
Continuous
100
AcDbLine
 10
471.007008456766
 20
1670.070393950034
 30
0.0
 11
471.007008456766
 21
1638.570393950034
 31
0.0
  0
LINE
  5
169
330
2
100
AcDbEntity
  8
本体
  6
Continuous
100
AcDbLine
 10
471.007008456766
 20
1630.570393950034
 30
0.0
 11
471.007008456766
 21
1588.570393950034
 31
0.0
  0
LINE
  5
16D
330
2
100
AcDbEntity
  8
本体
  6
Continuous
100
AcDbLine
 10
478.007008456766
 20
1670.070393950034
 30
0.0
 11
478.007008456766
 21
1638.570393950034
 31
0.0
  0
LINE
  5
16E
330
2
100
AcDbEntity
  8
本体
  6
Continuous
100
AcDbLine
 10
478.007008456766
 20
1630.570393950034
 30
0.0
 11
478.007008456766
 21
1588.570393950034
 31
0.0
  0
LINE
  5
1BE
330
2
100
AcDbEntity
  8
本体
  6
Continuous
100
AcDbLine
 10
471.007008456766
 20
1249.070393950034
 30
0.0
 11
972.0070084567661
 21
1249.070393950034
 31
0.0
  0
LINE
  5
1BF
330
2
100
AcDbEntity
  8
本体
  6
Continuous
100
AcDbLine
 10
471.007008456766
 20
1244.570393950034
 30
0.0
 11
972.0070084567661
 21
1244.570393950034
 31
0.0
  0
LINE
  5
1C1
330
2
100
AcDbEntity
  8
本体
  6
Continuous
100
AcDbLine
 10
478.007008456766
 20
1249.070393950034
 30
0.0
 11
478.007008456766
 21
1280.570393950034
 31
0.0
  0
LINE
  5
1C2
330
2
100
AcDbEntity
  8
本体
  6
Continuous
100
AcDbLine
 10
471.007008456766
 20
1249.070393950034
 30
0.0
 11
471.007008456766
 21
1280.570393950034
 31
0.0
  0
LINE
  5
206
330
2
100
AcDbEntity
  8
本体
  6
Continuous
100
AcDbLine
 10
929.9070084567656
 20
1630.570393950034
 30
0.0
 11
965.2070084567657
 21
1638.570393950034
 31
0.0
  0
LINE
  5
209
330
2
100
AcDbEntity
  8
本体
  6
Continuous
100
AcDbLine
 10
965.2070084567657
 20
1630.570393950034
 30
0.0
 11
972.0070084567661
 21
1632.111470437286
 31
0.0
  0
INSERT
  5
238
330
2
100
AcDbEntity
  8
本体
  6
Continuous
100
AcDbBlockReference
  2
TB8
 10
1909.936963014384
 20
1384.570393950034
 30
0.0
  0
LINE
  5
2FD
330
2
100
AcDbEntity
  8
本体
100
AcDbLine
 10
965.007008456766
 20
740.4863152268863
 30
0.0
 11
972.0070084567661
 21
740.4863152268863
 31
0.0
  0
LINE
  5
2FE
330
2
100
AcDbEntity
  8
本体
100
AcDbLine
 10
965.007008456766
 20
740.4863152268863
 30
0.0
 11
965.007008456766
 21
730.4863152268863
 31
0.0
  0
LINE
  5
2FF
330
2
100
AcDbEntity
  8
本体
100
AcDbLine
 10
965.007008456766
 20
730.4863152268863
 30
0.0
 11
966.5070084567659
 21
729.4863152268862
 31
0.0
  0
LINE
  5
300
330
2
100
AcDbEntity
  8
本体
100
AcDbLine
 10
972.0070084567661
 20
740.4863152268863
 30
0.0
 11
972.0070084567661
 21
730.4863152268863
 31
0.0
  0
LINE
  5
301
330
2
100
AcDbEntity
  8
本体
100
AcDbLine
 10
972.0070084567661
 20
730.4863152268863
 30
0.0
 11
970.507008456766
 21
729.4863152268862
 31
0.0
  0
LINE
  5
302
330
2
100
AcDbEntity
  8
本体
100
AcDbLine
 10
965.007008456766
 20
690.4863152268863
 30
0.0
 11
972.0070084567661
 21
690.4863152268863
 31
0.0
  0
LINE
  5
303
330
2
100
AcDbEntity
  8
本体
100
AcDbLine
 10
965.007008456766
 20
690.4863152268863
 30
0.0
 11
965.007008456766
 21
700.4863152268862
 31
0.0
  0
LINE
  5
304
330
2
100
AcDbEntity
  8
本体
100
AcDbLine
 10
965.007008456766
 20
700.4863152268862
 30
0.0
 11
966.5070084567659
 21
701.4863152268863
 31
0.0
  0
LINE
  5
305
330
2
100
AcDbEntity
  8
本体
100
AcDbLine
 10
972.0070084567661
 20
690.4863152268863
 30
0.0
 11
972.0070084567661
 21
700.4863152268862
 31
0.0
  0
LINE
  5
306
330
2
100
AcDbEntity
  8
本体
100
AcDbLine
 10
972.0070084567661
 20
700.4863152268862
 30
0.0
 11
970.507008456766
 21
701.4863152268863
 31
0.0
  0
LINE
  5
307
330
2
100
AcDbEntity
  8
本体
100
AcDbLine
 10
966.5070084567659
 20
729.4863152268862
 30
0.0
 11
966.5070084567659
 21
701.4863152268863
 31
0.0
  0
LINE
  5
308
330
2
100
AcDbEntity
  8
本体
100
AcDbLine
 10
970.507008456766
 20
729.4863152268862
 30
0.0
 11
970.507008456766
 21
701.4863152268863
 31
0.0
  0
LINE
  5
309
330
2
100
AcDbEntity
  8
嵩上断面
  6
Continuous
100
AcDbLine
 10
969.0070084567659
 20
635.4863152268863
 30
0.0
 11
969.0070084567659
 21
690.4863152268863
 31
0.0
  0
LINE
  5
30F
330
2
100
AcDbEntity
  8
本体
  6
Continuous
100
AcDbLine
 10
972.0070084567661
 20
1674.570393950034
 30
0.0
 11
972.0070084567661
 21
1244.570393950034
 31
0.0
  0
DIMENSION
  5
310
330
2
100
AcDbEntity
  8
寸法線
  6
Continuous
100
AcDbDimension
  2
*D8
 10
972.0070084567661
 20
900.4863152268862
 30
0.0
 11
721.507008456766
 21
900.4863152268862
 31
0.0
 70
   160
 71
     5
 42
501.0
  3
ISO-25
100
AcDbAlignedDimension
 13
471.007008456766
 23
740.4863152268862
 33
0.0
 14
972.0070084567661
 24
740.4863152268862
 34
0.0
100
AcDbRotatedDimension
1001
ACAD
1000
DSTYLE
1002
{
1070
   279
1070
     0
1002
}
  0
LINE
  5
31D
102
{ACAD_REACTORS
330
320
102
}
330
2
100
AcDbEntity
  8
ゴム
  6
Continuous
100
AcDbLine
 10
474.007008456766
 20
635.4863152268863
 30
0.0
 11
474.007008456766
 21
630.4863152268863
 31
0.0
  0
LINE
  5
31E
102
{ACAD_REACTORS
330
320
102
}
330
2
100
AcDbEntity
  8
ゴム
  6
Continuous
100
AcDbLine
 10
474.007008456766
 20
630.4863152268863
 30
0.0
 11
969.0070084567659
 21
630.4863152268867
 31
0.0
  0
LINE
  5
31F
102
{ACAD_REACTORS
330
320
102
}
330
2
100
AcDbEntity
  8
ゴム
  6
Continuous
100
AcDbLine
 10
969.0070084567659
 20
630.4863152268867
 30
0.0
 11
969.0070084567659
 21
635.4863152268863
 31
0.0
  0
HATCH
  5
320
330
2
100
AcDbEntity
  8
ゴム
  6
Continuous
100
AcDbHatch
 10
0.0
 20
0.0
 30
0.0
210
0.0
220
0.0
230
1.0
  2
ANSI31
 70
     0
 71
     1
 91
        1
 92
        1
 93
        4
 72
     1
 10
969.0070084567659
 20
630.4863152268867
 11
969.0070084567659
 21
635.4863152268863
 72
     1
 10
969.0070084567659
 20
635.4863152268863
 11
474.007008456766
 21
635.4863152268863
 72
     1
 10
474.007008456766
 20
635.4863152268863
 11
474.007008456766
 21
630.4863152268863
 72
     1
 10
474.007008456766
 20
630.4863152268863
 11
969.0070084567659
 21
630.4863152268867
 97
        4
330
31F
330
F5
330
31D
330
31E
 75
     0
 76
     1
 52
0.0
 41
1.0
 77
     0
 78
     1
 53
45.0
 43
-80.44453916600014
 44
1039.776673633497
 45
-2.245064030267287
 46
2.245064030267288
 79
     0
 98
        1
 10
-80.44453916600014
 20
1039.776673633497
  0
DIMENSION
  5
321
330
2
100
AcDbEntity
  8
寸法線
  6
Continuous
100
AcDbDimension
  2
*D9
 10
1082.007008456766
 20
635.4863152268863
 30
0.0
 11
1082.007008456766
 21
587.3121579235159
 31
0.0
 70
   160
 71
     5
 42
4.999999999999545
  3
ISO-25
100
AcDbAlignedDimension
 13
969.0070084567659
 23
630.4863152268867
 33
0.0
 14
969.0070084567659
 24
635.4863152268863
 34
0.0
 50
270.0
100
AcDbRotatedDimension
  0
DIMENSION
  5
330
330
2
100
AcDbEntity
  8
寸法線
  6
Continuous
100
AcDbDimension
  2
*D10
 10
1082.007008456766
 20
690.4863152268862
 30
0.0
 11
1082.007008456766
 21
662.9863152268862
 31
0.0
 70
   160
 71
     5
 42
54.99999999999989
  3
ISO-25
100
AcDbAlignedDimension
 13
969.0070084567659
 23
635.4863152268863
 33
0.0
 14
972.0070084567661
 24
690.4863152268862
 34
0.0
 50
270.0
100
AcDbRotatedDimension
  0
DIMENSION
  5
33D
330
2
100
AcDbEntity
  8
寸法線
  6
Continuous
100
AcDbDimension
  2
*D11
 10
1082.007008456766
 20
740.4863152268862
 30
0.0
 11
1062.007008456766
 21
715.4863152268863
 31
0.0
 70
    32
 71
     5
 42
50.0
  3
ISO-25
100
AcDbAlignedDimension
 13
972.0070084567661
 23
690.4863152268862
 33
0.0
 14
972.0070084567661
 24
740.4863152268862
 34
0.0
 50
270.0
100
AcDbRotatedDimension
  0
LINE
  5
356
330
2
100
AcDbEntity
  8
エンボス
  6
Continuous
100
AcDbLine
 10
478.007008456766
 20
1625.070393950034
 30
0.0
 11
471.007008456766
 21
1623.070393950034
 31
0.0
  0
LINE
  5
357
330
2
100
AcDbEntity
  8
エンボス
  6
Continuous
100
AcDbLine
 10
471.007008456766
 20
1620.070393950034
 30
0.0
 11
478.007008456766
 21
1618.070393950034
 31
0.0
  0
LINE
  5
358
330
2
100
AcDbEntity
  8
エンボス
  6
Continuous
100
AcDbLine
 10
471.007008456766
 20
1611.070393950034
 30
0.0
 11
478.007008456766
 21
1609.070393950034
 31
0.0
  0
LINE
  5
359
330
2
100
AcDbEntity
  8
エンボス
  6
Continuous
100
AcDbLine
 10
478.007008456766
 20
1606.070393950034
 30
0.0
 11
471.007008456766
 21
1604.070393950034
 31
0.0
  0
LINE
  5
35A
330
2
100
AcDbEntity
  8
エンボス
  6
Continuous
100
AcDbLine
 10
478.007008456766
 20
1597.070393950034
 30
0.0
 11
471.007008456766
 21
1595.070393950034
 31
0.0
  0
LINE
  5
35B
330
2
100
AcDbEntity
  8
エンボス
  6
Continuous
100
AcDbLine
 10
471.007008456766
 20
1592.070393950034
 30
0.0
 11
478.007008456766
 21
1590.070393950034
 31
0.0
  0
LINE
  5
362
330
2
100
AcDbEntity
  8
エンボス
  6
Continuous
100
AcDbLine
 10
471.007008456766
 20
1653.434487950034
 30
0.0
 11
478.007008456766
 21
1651.434487950034
 31
0.0
  0
LINE
  5
363
330
2
100
AcDbEntity
  8
エンボス
  6
Continuous
100
AcDbLine
 10
478.007008456766
 20
1648.434487950034
 30
0.0
 11
471.007008456766
 21
1646.434487950034
 31
0.0
  0
LINE
  5
364
330
2
100
AcDbEntity
  8
エンボス
  6
Continuous
100
AcDbLine
 10
478.007008456766
 20
1660.434487950034
 30
0.0
 11
471.007008456766
 21
1662.434487950034
 31
0.0
  0
LINE
  5
365
330
2
100
AcDbEntity
  8
エンボス
  6
Continuous
100
AcDbLine
 10
471.007008456766
 20
1665.434487950034
 30
0.0
 11
478.007008456766
 21
1667.434487950034
 31
0.0
  0
LINE
  5
5BA
330
2
100
AcDbEntity
  8
エンボス
  6
Continuous
100
AcDbLine
 10
471.007008456766
 20
1261.99417689718
 30
0.0
 11
478.007008456766
 21
1259.99417689718
 31
0.0
  0
LINE
  5
5BB
330
2
100
AcDbEntity
  8
エンボス
  6
Continuous
100
AcDbLine
 10
478.007008456766
 20
1256.99417689718
 30
0.0
 11
471.007008456766
 21
1254.99417689718
 31
0.0
  0
LINE
  5
5BC
330
2
100
AcDbEntity
  8
エンボス
  6
Continuous
100
AcDbLine
 10
478.007008456766
 20
1268.99417689718
 30
0.0
 11
471.007008456766
 21
1270.99417689718
 31
0.0
  0
LINE
  5
5BD
330
2
100
AcDbEntity
  8
エンボス
  6
Continuous
100
AcDbLine
 10
471.007008456766
 20
1273.99417689718
 30
0.0
 11
478.007008456766
 21
1275.99417689718
 31
0.0
  0
LINE
  5
62C
330
2
100
AcDbEntity
  8
本体
  6
Continuous
100
AcDbLine
 10
972.0070084567661
 20
1249.070393950034
 30
0.0
 11
972.0070084567661
 21
1280.570393950034
 31
0.0
  0
LINE
  5
62D
330
2
100
AcDbEntity
  8
本体
  6
Continuous
100
AcDbLine
 10
965.007008456766
 20
1249.070393950034
 30
0.0
 11
965.007008456766
 21
1280.570393950034
 31
0.0
  0
LINE
  5
62E
330
2
100
AcDbEntity
  8
エンボス
  6
Continuous
100
AcDbLine
 10
965.007008456766
 20
1261.99417689718
 30
0.0
 11
972.0070084567661
 21
1259.99417689718
 31
0.0
  0
LINE
  5
62F
330
2
100
AcDbEntity
  8
エンボス
  6
Continuous
100
AcDbLine
 10
972.0070084567661
 20
1256.99417689718
 30
0.0
 11
965.007008456766
 21
1254.99417689718
 31
0.0
  0
LINE
  5
630
330
2
100
AcDbEntity
  8
エンボス
  6
Continuous
100
AcDbLine
 10
972.0070084567661
 20
1268.99417689718
 30
0.0
 11
965.007008456766
 21
1270.99417689718
 31
0.0
  0
LINE
  5
631
330
2
100
AcDbEntity
  8
エンボス
  6
Continuous
100
AcDbLine
 10
965.007008456766
 20
1273.99417689718
 30
0.0
 11
972.0070084567661
 21
1275.99417689718
 31
0.0
  0
LINE
  5
63F
330
2
100
AcDbEntity
  8
本体
  6
Continuous
100
AcDbLine
 10
965.007008456766
 20
1630.570393950034
 30
0.0
 11
965.007008456766
 21
1588.570393950034
 31
0.0
  0
LINE
  5
640
330
2
100
AcDbEntity
  8
本体
  6
Continuous
100
AcDbLine
 10
972.0070084567661
 20
1630.570393950034
 30
0.0
 11
972.0070084567661
 21
1588.570393950034
 31
0.0
  0
LINE
  5
654
330
2
100
AcDbEntity
  8
エンボス
  6
Continuous
100
AcDbLine
 10
965.007008456766
 20
1592.070393950034
 30
0.0
 11
972.0070084567661
 21
1590.070393950034
 31
0.0
  0
LINE
  5
659
330
2
100
AcDbEntity
  8
エンボス
  6
Continuous
100
AcDbLine
 10
972.0070084567661
 20
1625.070393950034
 30
0.0
 11
965.007008456766
 21
1623.070393950034
 31
0.0
  0
LINE
  5
65A
330
2
100
AcDbEntity
  8
エンボス
  6
Continuous
100
AcDbLine
 10
965.007008456766
 20
1620.070393950034
 30
0.0
 11
972.0070084567661
 21
1618.070393950034
 31
0.0
  0
LINE
  5
65B
330
2
100
AcDbEntity
  8
エンボス
  6
Continuous
100
AcDbLine
 10
965.007008456766
 20
1611.070393950034
 30
0.0
 11
972.0070084567661
 21
1609.070393950034
 31
0.0
  0
LINE
  5
65C
330
2
100
AcDbEntity
  8
エンボス
  6
Continuous
100
AcDbLine
 10
972.0070084567661
 20
1606.070393950034
 30
0.0
 11
965.007008456766
 21
1604.070393950034
 31
0.0
  0
LINE
  5
65D
330
2
100
AcDbEntity
  8
エンボス
  6
Continuous
100
AcDbLine
 10
972.0070084567661
 20
1597.070393950034
 30
0.0
 11
965.007008456766
 21
1595.070393950034
 31
0.0
  0
LINE
  5
65E
330
2
100
AcDbEntity
  8
本体
  6
Continuous
100
AcDbLine
 10
965.007008456766
 20
1670.070393950034
 30
0.0
 11
965.007008456766
 21
1638.570393950034
 31
0.0
  0
LINE
  5
65F
330
2
100
AcDbEntity
  8
本体
  6
Continuous
100
AcDbLine
 10
972.0070084567661
 20
1670.070393950034
 30
0.0
 11
972.0070084567661
 21
1638.570393950034
 31
0.0
  0
LINE
  5
664
330
2
100
AcDbEntity
  8
エンボス
  6
Continuous
100
AcDbLine
 10
965.007008456766
 20
1653.434487950034
 30
0.0
 11
972.0070084567661
 21
1651.434487950034
 31
0.0
  0
LINE
  5
665
330
2
100
AcDbEntity
  8
エンボス
  6
Continuous
100
AcDbLine
 10
972.0070084567661
 20
1648.434487950034
 30
0.0
 11
965.007008456766
 21
1646.434487950034
 31
0.0
  0
LINE
  5
666
330
2
100
AcDbEntity
  8
エンボス
  6
Continuous
100
AcDbLine
 10
972.0070084567661
 20
1660.434487950034
 30
0.0
 11
965.007008456766
 21
1662.434487950034
 31
0.0
  0
LINE
  5
667
330
2
100
AcDbEntity
  8
エンボス
  6
Continuous
100
AcDbLine
 10
965.007008456766
 20
1665.434487950034
 30
0.0
 11
972.0070084567661
 21
1667.434487950034
 31
0.0
  0
LINE
  5
668
330
2
100
AcDbEntity
  8
寸法線
  6
Continuous
100
AcDbLine
 10
792.2070084567658
 20
748.4863152268863
 30
0.0
 11
792.2070084567658
 21
682.4863152268862
 31
0.0
  0
LINE
  5
669
330
2
100
AcDbEntity
  8
寸法線
  6
Continuous
100
AcDbLine
 10
827.507008456766
 20
748.4863152268863
 30
0.0
 11
827.507008456766
 21
682.4863152268862
 31
0.0
  0
INSERT
  5
66A
330
2
100
AcDbEntity
  8
ゴム
  6
Continuous
100
AcDbBlockReference
  2
平ゴムパッキン
 10
2011.936960014384
 20
1664.570394950034
 30
0.0
  0
LINE
  5
6D1
330
2
100
AcDbEntity
  8
嵩上平面
  6
HIDDEN
 48
3.0
370
     9
100
AcDbLine
 10
969.507008456766
 20
1664.570394950034
 30
0.0
 11
473.5070084567659
 21
1664.570394950034
 31
0.0
  0
LINE
  5
6D4
330
2
100
AcDbEntity
  8
嵩上平面
  6
HIDDEN
 48
3.0
370
     9
100
AcDbLine
 10
969.507008456766
 20
1254.570392950034
 30
0.0
 11
473.5070084567659
 21
1254.570392950034
 31
0.0
  0
LINE
  5
6D5
330
2
100
AcDbEntity
  8
嵩上平面
  6
HIDDEN
 48
3.0
370
     9
100
AcDbLine
 10
969.507008456766
 20
1254.570392950034
 30
0.0
 11
969.5070084567658
 21
1294.570392950034
 31
0.0
  0
LINE
  5
6D6
330
2
100
AcDbEntity
  8
嵩上平面
  6
HIDDEN
 48
3.0
370
     9
100
AcDbLine
 10
473.5070084567659
 20
1254.570392950034
 30
0.0
 11
473.5070084567659
 21
1294.570392950034
 31
0.0
  0
LINE
  5
6D7
330
2
100
AcDbEntity
  8
嵩上平面
  6
HIDDEN
 48
3.0
370
     9
100
AcDbLine
 10
969.507008456766
 20
1624.570394950034
 30
0.0
 11
969.507008456766
 21
1664.570394950034
 31
0.0
  0
LINE
  5
6D8
330
2
100
AcDbEntity
  8
嵩上平面
  6
HIDDEN
 48
3.0
370
     9
100
AcDbLine
 10
473.5070084567659
 20
1624.570394950034
 30
0.0
 11
473.5070084567659
 21
1664.570394950034
 31
0.0
  0
INSERT
  5
6E8
330
2
100
AcDbEntity
  8
本体
  6
Continuous
100
AcDbBlockReference
  2
TB8
 10
1909.936963014384
 20
1334.570393950034
 30
0.0
  0
INSERT
  5
6E9
330
2
100
AcDbEntity
  8
本体
  6
Continuous
100
AcDbBlockReference
  2
TB8
 10
1909.936963014384
 20
1434.570393950034
 30
0.0
  0
INSERT
  5
6EA
330
2
100
AcDbEntity
  8
本体
  6
Continuous
100
AcDbBlockReference
  2
TB8
 10
1909.936963014384
 20
1534.570393950034
 30
0.0
  0
INSERT
  5
6EB
330
2
100
AcDbEntity
  8
本体
  6
Continuous
100
AcDbBlockReference
  2
TB8
 10
1909.936963014384
 20
1634.570393950034
 30
0.0
  0
DIMENSION
  5
6EC
330
2
100
AcDbEntity
  8
寸法線
 48
3.0
100
AcDbDimension
  2
*D12
 10
1829.936963014384
 20
1584.570393950034
 30
0.0
 11
1809.936963014384
 21
1609.570393950034
 31
0.0
 70
    32
 71
     5
 42
50.0
  3
ISO-25
100
AcDbAlignedDimension
 13
1907.936963014385
 23
1634.570393950034
 33
0.0
 14
1907.936963014385
 24
1584.570393950034
 34
0.0
 50
90.0
100
AcDbRotatedDimension
  0
LINE
  5
6F9
330
2
100
AcDbEntity
  8
本体
  6
Continuous
100
AcDbLine
 10
471.007008456766
 20
1588.570393950034
 30
0.0
 11
972.0070084567661
 21
1588.570393950034
 31
0.0
  0
LINE
  5
6FA
330
2
100
AcDbEntity
  8
本体
  6
Continuous
100
AcDbLine
 10
471.007008456766
 20
1580.570393950034
 30
0.0
 11
972.0070084567661
 21
1580.570393950034
 31
0.0
  0
LINE
  5
6FD
330
2
100
AcDbEntity
  8
エンボス
  6
Continuous
100
AcDbLine
 10
478.007008456766
 20
1556.070393950034
 30
0.0
 11
471.007008456766
 21
1554.070393950034
 31
0.0
  0
LINE
  5
700
330
2
100
AcDbEntity
  8
本体
  6
Continuous
100
AcDbLine
 10
478.007008456766
 20
1580.570393950034
 30
0.0
 11
478.007008456766
 21
1538.570393950034
 31
0.0
  0
LINE
  5
701
330
2
100
AcDbEntity
  8
本体
  6
Continuous
100
AcDbLine
 10
471.007008456766
 20
1580.570393950034
 30
0.0
 11
471.007008456766
 21
1538.570393950034
 31
0.0
  0
LINE
  5
702
330
2
100
AcDbEntity
  8
エンボス
  6
Continuous
100
AcDbLine
 10
478.007008456766
 20
1547.070393950034
 30
0.0
 11
471.007008456766
 21
1545.070393950034
 31
0.0
  0
LINE
  5
703
330
2
100
AcDbEntity
  8
エンボス
  6
Continuous
100
AcDbLine
 10
471.007008456766
 20
1542.070393950034
 30
0.0
 11
478.007008456766
 21
1540.070393950034
 31
0.0
  0
LINE
  5
708
330
2
100
AcDbEntity
  8
エンボス
  6
Continuous
100
AcDbLine
 10
478.007008456766
 20
1575.070393950034
 30
0.0
 11
471.007008456766
 21
1573.070393950034
 31
0.0
  0
LINE
  5
709
330
2
100
AcDbEntity
  8
エンボス
  6
Continuous
100
AcDbLine
 10
471.007008456766
 20
1570.070393950034
 30
0.0
 11
478.007008456766
 21
1568.070393950034
 31
0.0
  0
LINE
  5
70A
330
2
100
AcDbEntity
  8
エンボス
  6
Continuous
100
AcDbLine
 10
471.007008456766
 20
1561.070393950034
 30
0.0
 11
478.007008456766
 21
1559.070393950034
 31
0.0
  0
LINE
  5
70E
330
2
100
AcDbEntity
  8
エンボス
  6
Continuous
100
AcDbLine
 10
972.0070084567661
 20
1556.070393950034
 30
0.0
 11
965.007008456766
 21
1554.070393950034
 31
0.0
  0
LINE
  5
71B
330
2
100
AcDbEntity
  8
本体
  6
Continuous
100
AcDbLine
 10
972.0070084567661
 20
1580.570393950034
 30
0.0
 11
972.0070084567661
 21
1538.570393950034
 31
0.0
  0
LINE
  5
71C
330
2
100
AcDbEntity
  8
本体
  6
Continuous
100
AcDbLine
 10
965.007008456766
 20
1580.570393950034
 30
0.0
 11
965.007008456766
 21
1538.570393950034
 31
0.0
  0
LINE
  5
74D
330
2
100
AcDbEntity
  8
エンボス
  6
Continuous
100
AcDbLine
 10
972.0070084567661
 20
1547.070393950034
 30
0.0
 11
965.007008456766
 21
1545.070393950034
 31
0.0
  0
LINE
  5
74E
330
2
100
AcDbEntity
  8
エンボス
  6
Continuous
100
AcDbLine
 10
965.007008456766
 20
1542.070393950034
 30
0.0
 11
972.0070084567661
 21
1540.070393950034
 31
0.0
  0
LINE
  5
74F
330
2
100
AcDbEntity
  8
本体
  6
Continuous
100
AcDbLine
 10
929.9070084567656
 20
1580.570393950034
 30
0.0
 11
965.2070084567657
 21
1588.570393950034
 31
0.0
  0
LINE
  5
77F
330
2
100
AcDbEntity
  8
本体
  6
Continuous
100
AcDbLine
 10
965.2070084567657
 20
1580.570393950034
 30
0.0
 11
972.0070084567661
 21
1582.111470437286
 31
0.0
  0
LINE
  5
781
330
2
100
AcDbEntity
  8
エンボス
  6
Continuous
100
AcDbLine
 10
972.0070084567661
 20
1575.070393950034
 30
0.0
 11
965.007008456766
 21
1573.070393950034
 31
0.0
  0
LINE
  5
782
330
2
100
AcDbEntity
  8
エンボス
  6
Continuous
100
AcDbLine
 10
965.007008456766
 20
1570.070393950034
 30
0.0
 11
972.0070084567661
 21
1568.070393950034
 31
0.0
  0
LINE
  5
783
330
2
100
AcDbEntity
  8
エンボス
  6
Continuous
100
AcDbLine
 10
965.007008456766
 20
1561.070393950034
 30
0.0
 11
972.0070084567661
 21
1559.070393950034
 31
0.0
  0
LINE
  5
784
330
2
100
AcDbEntity
  8
本体
  6
Continuous
100
AcDbLine
 10
471.007008456766
 20
1538.570393950034
 30
0.0
 11
972.0070084567661
 21
1538.570393950034
 31
0.0
  0
LINE
  5
785
330
2
100
AcDbEntity
  8
本体
  6
Continuous
100
AcDbLine
 10
471.007008456766
 20
1530.570393950034
 30
0.0
 11
972.0070084567661
 21
1530.570393950034
 31
0.0
  0
LINE
  5
788
330
2
100
AcDbEntity
  8
エンボス
  6
Continuous
100
AcDbLine
 10
478.007008456766
 20
1506.070393950034
 30
0.0
 11
471.007008456766
 21
1504.070393950034
 31
0.0
  0
LINE
  5
78B
330
2
100
AcDbEntity
  8
本体
  6
Continuous
100
AcDbLine
 10
478.007008456766
 20
1530.570393950034
 30
0.0
 11
478.007008456766
 21
1488.570393950034
 31
0.0
  0
LINE
  5
78C
330
2
100
AcDbEntity
  8
本体
  6
Continuous
100
AcDbLine
 10
471.007008456766
 20
1530.570393950034
 30
0.0
 11
471.007008456766
 21
1488.570393950034
 31
0.0
  0
LINE
  5
78D
330
2
100
AcDbEntity
  8
エンボス
  6
Continuous
100
AcDbLine
 10
478.007008456766
 20
1497.070393950034
 30
0.0
 11
471.007008456766
 21
1495.070393950034
 31
0.0
  0
LINE
  5
78E
330
2
100
AcDbEntity
  8
エンボス
  6
Continuous
100
AcDbLine
 10
471.007008456766
 20
1492.070393950034
 30
0.0
 11
478.007008456766
 21
1490.070393950034
 31
0.0
  0
LINE
  5
793
330
2
100
AcDbEntity
  8
エンボス
  6
Continuous
100
AcDbLine
 10
478.007008456766
 20
1525.070393950034
 30
0.0
 11
471.007008456766
 21
1523.070393950034
 31
0.0
  0
LINE
  5
794
330
2
100
AcDbEntity
  8
エンボス
  6
Continuous
100
AcDbLine
 10
471.007008456766
 20
1520.070393950034
 30
0.0
 11
478.007008456766
 21
1518.070393950034
 31
0.0
  0
LINE
  5
795
330
2
100
AcDbEntity
  8
エンボス
  6
Continuous
100
AcDbLine
 10
471.007008456766
 20
1511.070393950034
 30
0.0
 11
478.007008456766
 21
1509.070393950034
 31
0.0
  0
LINE
  5
799
330
2
100
AcDbEntity
  8
エンボス
  6
Continuous
100
AcDbLine
 10
972.0070084567661
 20
1506.070393950034
 30
0.0
 11
965.007008456766
 21
1504.070393950034
 31
0.0
  0
LINE
  5
7A6
330
2
100
AcDbEntity
  8
本体
  6
Continuous
100
AcDbLine
 10
972.0070084567661
 20
1530.570393950034
 30
0.0
 11
972.0070084567661
 21
1488.570393950034
 31
0.0
  0
LINE
  5
7A7
330
2
100
AcDbEntity
  8
本体
  6
Continuous
100
AcDbLine
 10
965.007008456766
 20
1530.570393950034
 30
0.0
 11
965.007008456766
 21
1488.570393950034
 31
0.0
  0
LINE
  5
7D8
330
2
100
AcDbEntity
  8
エンボス
  6
Continuous
100
AcDbLine
 10
972.0070084567661
 20
1497.070393950034
 30
0.0
 11
965.007008456766
 21
1495.070393950034
 31
0.0
  0
LINE
  5
7D9
330
2
100
AcDbEntity
  8
エンボス
  6
Continuous
100
AcDbLine
 10
965.007008456766
 20
1492.070393950034
 30
0.0
 11
972.0070084567661
 21
1490.070393950034
 31
0.0
  0
LINE
  5
7DA
330
2
100
AcDbEntity
  8
本体
  6
Continuous
100
AcDbLine
 10
929.9070084567656
 20
1530.570393950034
 30
0.0
 11
965.2070084567657
 21
1538.570393950034
 31
0.0
  0
LINE
  5
80A
330
2
100
AcDbEntity
  8
本体
  6
Continuous
100
AcDbLine
 10
965.2070084567657
 20
1530.570393950034
 30
0.0
 11
972.0070084567661
 21
1532.111470437286
 31
0.0
  0
LINE
  5
80C
330
2
100
AcDbEntity
  8
エンボス
  6
Continuous
100
AcDbLine
 10
972.0070084567661
 20
1525.070393950034
 30
0.0
 11
965.007008456766
 21
1523.070393950034
 31
0.0
  0
LINE
  5
80D
330
2
100
AcDbEntity
  8
エンボス
  6
Continuous
100
AcDbLine
 10
965.007008456766
 20
1520.070393950034
 30
0.0
 11
972.0070084567661
 21
1518.070393950034
 31
0.0
  0
LINE
  5
80E
330
2
100
AcDbEntity
  8
エンボス
  6
Continuous
100
AcDbLine
 10
965.007008456766
 20
1511.070393950034
 30
0.0
 11
972.0070084567661
 21
1509.070393950034
 31
0.0
  0
LINE
  5
80F
330
2
100
AcDbEntity
  8
本体
  6
Continuous
100
AcDbLine
 10
471.007008456766
 20
1488.570393950034
 30
0.0
 11
972.0070084567661
 21
1488.570393950034
 31
0.0
  0
LINE
  5
810
330
2
100
AcDbEntity
  8
本体
  6
Continuous
100
AcDbLine
 10
471.007008456766
 20
1480.570393950034
 30
0.0
 11
972.0070084567661
 21
1480.570393950034
 31
0.0
  0
LINE
  5
813
330
2
100
AcDbEntity
  8
エンボス
  6
Continuous
100
AcDbLine
 10
478.007008456766
 20
1456.070393950034
 30
0.0
 11
471.007008456766
 21
1454.070393950034
 31
0.0
  0
LINE
  5
816
330
2
100
AcDbEntity
  8
本体
  6
Continuous
100
AcDbLine
 10
478.007008456766
 20
1480.570393950034
 30
0.0
 11
478.007008456766
 21
1438.570393950034
 31
0.0
  0
LINE
  5
817
330
2
100
AcDbEntity
  8
本体
  6
Continuous
100
AcDbLine
 10
471.007008456766
 20
1480.570393950034
 30
0.0
 11
471.007008456766
 21
1438.570393950034
 31
0.0
  0
LINE
  5
818
330
2
100
AcDbEntity
  8
エンボス
  6
Continuous
100
AcDbLine
 10
478.007008456766
 20
1447.070393950034
 30
0.0
 11
471.007008456766
 21
1445.070393950034
 31
0.0
  0
LINE
  5
819
330
2
100
AcDbEntity
  8
エンボス
  6
Continuous
100
AcDbLine
 10
471.007008456766
 20
1442.070393950034
 30
0.0
 11
478.007008456766
 21
1440.070393950034
 31
0.0
  0
LINE
  5
81E
330
2
100
AcDbEntity
  8
エンボス
  6
Continuous
100
AcDbLine
 10
478.007008456766
 20
1475.070393950034
 30
0.0
 11
471.007008456766
 21
1473.070393950034
 31
0.0
  0
LINE
  5
81F
330
2
100
AcDbEntity
  8
エンボス
  6
Continuous
100
AcDbLine
 10
471.007008456766
 20
1470.070393950034
 30
0.0
 11
478.007008456766
 21
1468.070393950034
 31
0.0
  0
LINE
  5
820
330
2
100
AcDbEntity
  8
エンボス
  6
Continuous
100
AcDbLine
 10
471.007008456766
 20
1461.070393950034
 30
0.0
 11
478.007008456766
 21
1459.070393950034
 31
0.0
  0
LINE
  5
824
330
2
100
AcDbEntity
  8
エンボス
  6
Continuous
100
AcDbLine
 10
972.0070084567661
 20
1456.070393950034
 30
0.0
 11
965.007008456766
 21
1454.070393950034
 31
0.0
  0
LINE
  5
831
330
2
100
AcDbEntity
  8
本体
  6
Continuous
100
AcDbLine
 10
972.0070084567661
 20
1480.570393950034
 30
0.0
 11
972.0070084567661
 21
1438.570393950034
 31
0.0
  0
LINE
  5
832
330
2
100
AcDbEntity
  8
本体
  6
Continuous
100
AcDbLine
 10
965.007008456766
 20
1480.570393950034
 30
0.0
 11
965.007008456766
 21
1438.570393950034
 31
0.0
  0
LINE
  5
863
330
2
100
AcDbEntity
  8
エンボス
  6
Continuous
100
AcDbLine
 10
972.0070084567661
 20
1447.070393950034
 30
0.0
 11
965.007008456766
 21
1445.070393950034
 31
0.0
  0
LINE
  5
864
330
2
100
AcDbEntity
  8
エンボス
  6
Continuous
100
AcDbLine
 10
965.007008456766
 20
1442.070393950034
 30
0.0
 11
972.0070084567661
 21
1440.070393950034
 31
0.0
  0
LINE
  5
865
330
2
100
AcDbEntity
  8
本体
  6
Continuous
100
AcDbLine
 10
929.9070084567656
 20
1480.570393950034
 30
0.0
 11
965.2070084567657
 21
1488.570393950034
 31
0.0
  0
LINE
  5
895
330
2
100
AcDbEntity
  8
本体
  6
Continuous
100
AcDbLine
 10
965.2070084567657
 20
1480.570393950034
 30
0.0
 11
972.0070084567661
 21
1482.111470437286
 31
0.0
  0
LINE
  5
897
330
2
100
AcDbEntity
  8
エンボス
  6
Continuous
100
AcDbLine
 10
972.0070084567661
 20
1475.070393950034
 30
0.0
 11
965.007008456766
 21
1473.070393950034
 31
0.0
  0
LINE
  5
898
330
2
100
AcDbEntity
  8
エンボス
  6
Continuous
100
AcDbLine
 10
965.007008456766
 20
1470.070393950034
 30
0.0
 11
972.0070084567661
 21
1468.070393950034
 31
0.0
  0
LINE
  5
899
330
2
100
AcDbEntity
  8
エンボス
  6
Continuous
100
AcDbLine
 10
965.007008456766
 20
1461.070393950034
 30
0.0
 11
972.0070084567661
 21
1459.070393950034
 31
0.0
  0
LINE
  5
89A
330
2
100
AcDbEntity
  8
本体
  6
Continuous
100
AcDbLine
 10
471.007008456766
 20
1438.570393950034
 30
0.0
 11
972.0070084567661
 21
1438.570393950034
 31
0.0
  0
LINE
  5
89B
330
2
100
AcDbEntity
  8
本体
  6
Continuous
100
AcDbLine
 10
471.007008456766
 20
1430.570393950034
 30
0.0
 11
972.0070084567661
 21
1430.570393950034
 31
0.0
  0
LINE
  5
89E
330
2
100
AcDbEntity
  8
エンボス
  6
Continuous
100
AcDbLine
 10
478.007008456766
 20
1406.070393950034
 30
0.0
 11
471.007008456766
 21
1404.070393950034
 31
0.0
  0
LINE
  5
8A1
330
2
100
AcDbEntity
  8
本体
  6
Continuous
100
AcDbLine
 10
478.007008456766
 20
1430.570393950034
 30
0.0
 11
478.007008456766
 21
1388.570393950034
 31
0.0
  0
LINE
  5
8A2
330
2
100
AcDbEntity
  8
本体
  6
Continuous
100
AcDbLine
 10
471.007008456766
 20
1430.570393950034
 30
0.0
 11
471.007008456766
 21
1388.570393950034
 31
0.0
  0
LINE
  5
8A3
330
2
100
AcDbEntity
  8
エンボス
  6
Continuous
100
AcDbLine
 10
478.007008456766
 20
1397.070393950034
 30
0.0
 11
471.007008456766
 21
1395.070393950034
 31
0.0
  0
LINE
  5
8A4
330
2
100
AcDbEntity
  8
エンボス
  6
Continuous
100
AcDbLine
 10
471.007008456766
 20
1392.070393950034
 30
0.0
 11
478.007008456766
 21
1390.070393950034
 31
0.0
  0
LINE
  5
8A9
330
2
100
AcDbEntity
  8
エンボス
  6
Continuous
100
AcDbLine
 10
478.007008456766
 20
1425.070393950034
 30
0.0
 11
471.007008456766
 21
1423.070393950034
 31
0.0
  0
LINE
  5
8AA
330
2
100
AcDbEntity
  8
エンボス
  6
Continuous
100
AcDbLine
 10
471.007008456766
 20
1420.070393950034
 30
0.0
 11
478.007008456766
 21
1418.070393950034
 31
0.0
  0
LINE
  5
8AB
330
2
100
AcDbEntity
  8
エンボス
  6
Continuous
100
AcDbLine
 10
471.007008456766
 20
1411.070393950034
 30
0.0
 11
478.007008456766
 21
1409.070393950034
 31
0.0
  0
LINE
  5
8AF
330
2
100
AcDbEntity
  8
エンボス
  6
Continuous
100
AcDbLine
 10
972.0070084567661
 20
1406.070393950034
 30
0.0
 11
965.007008456766
 21
1404.070393950034
 31
0.0
  0
LINE
  5
8BC
330
2
100
AcDbEntity
  8
本体
  6
Continuous
100
AcDbLine
 10
972.0070084567661
 20
1430.570393950034
 30
0.0
 11
972.0070084567661
 21
1388.570393950034
 31
0.0
  0
LINE
  5
8BD
330
2
100
AcDbEntity
  8
本体
  6
Continuous
100
AcDbLine
 10
965.007008456766
 20
1430.570393950034
 30
0.0
 11
965.007008456766
 21
1388.570393950034
 31
0.0
  0
LINE
  5
8EE
330
2
100
AcDbEntity
  8
エンボス
  6
Continuous
100
AcDbLine
 10
972.0070084567661
 20
1397.070393950034
 30
0.0
 11
965.007008456766
 21
1395.070393950034
 31
0.0
  0
LINE
  5
8EF
330
2
100
AcDbEntity
  8
エンボス
  6
Continuous
100
AcDbLine
 10
965.007008456766
 20
1392.070393950034
 30
0.0
 11
972.0070084567661
 21
1390.070393950034
 31
0.0
  0
LINE
  5
8F0
330
2
100
AcDbEntity
  8
本体
  6
Continuous
100
AcDbLine
 10
929.9070084567656
 20
1430.570393950034
 30
0.0
 11
965.2070084567657
 21
1438.570393950034
 31
0.0
  0
LINE
  5
920
330
2
100
AcDbEntity
  8
本体
  6
Continuous
100
AcDbLine
 10
965.2070084567657
 20
1430.570393950034
 30
0.0
 11
972.0070084567661
 21
1432.111470437286
 31
0.0
  0
LINE
  5
922
330
2
100
AcDbEntity
  8
エンボス
  6
Continuous
100
AcDbLine
 10
972.0070084567661
 20
1425.070393950034
 30
0.0
 11
965.007008456766
 21
1423.070393950034
 31
0.0
  0
LINE
  5
923
330
2
100
AcDbEntity
  8
エンボス
  6
Continuous
100
AcDbLine
 10
965.007008456766
 20
1420.070393950034
 30
0.0
 11
972.0070084567661
 21
1418.070393950034
 31
0.0
  0
LINE
  5
924
330
2
100
AcDbEntity
  8
エンボス
  6
Continuous
100
AcDbLine
 10
965.007008456766
 20
1411.070393950034
 30
0.0
 11
972.0070084567661
 21
1409.070393950034
 31
0.0
  0
LINE
  5
925
330
2
100
AcDbEntity
  8
本体
  6
Continuous
100
AcDbLine
 10
471.007008456766
 20
1388.570393950034
 30
0.0
 11
972.0070084567661
 21
1388.570393950034
 31
0.0
  0
LINE
  5
926
330
2
100
AcDbEntity
  8
本体
  6
Continuous
100
AcDbLine
 10
471.007008456766
 20
1380.570393950034
 30
0.0
 11
972.0070084567661
 21
1380.570393950034
 31
0.0
  0
LINE
  5
929
330
2
100
AcDbEntity
  8
エンボス
  6
Continuous
100
AcDbLine
 10
478.007008456766
 20
1356.070393950034
 30
0.0
 11
471.007008456766
 21
1354.070393950034
 31
0.0
  0
LINE
  5
92C
330
2
100
AcDbEntity
  8
本体
  6
Continuous
100
AcDbLine
 10
478.007008456766
 20
1380.570393950034
 30
0.0
 11
478.007008456766
 21
1338.570393950034
 31
0.0
  0
LINE
  5
92D
330
2
100
AcDbEntity
  8
本体
  6
Continuous
100
AcDbLine
 10
471.007008456766
 20
1380.570393950034
 30
0.0
 11
471.007008456766
 21
1338.570393950034
 31
0.0
  0
LINE
  5
92E
330
2
100
AcDbEntity
  8
エンボス
  6
Continuous
100
AcDbLine
 10
478.007008456766
 20
1347.070393950034
 30
0.0
 11
471.007008456766
 21
1345.070393950034
 31
0.0
  0
LINE
  5
92F
330
2
100
AcDbEntity
  8
エンボス
  6
Continuous
100
AcDbLine
 10
471.007008456766
 20
1342.070393950034
 30
0.0
 11
478.007008456766
 21
1340.070393950034
 31
0.0
  0
LINE
  5
934
330
2
100
AcDbEntity
  8
エンボス
  6
Continuous
100
AcDbLine
 10
478.007008456766
 20
1375.070393950034
 30
0.0
 11
471.007008456766
 21
1373.070393950034
 31
0.0
  0
LINE
  5
935
330
2
100
AcDbEntity
  8
エンボス
  6
Continuous
100
AcDbLine
 10
471.007008456766
 20
1370.070393950034
 30
0.0
 11
478.007008456766
 21
1368.070393950034
 31
0.0
  0
LINE
  5
936
330
2
100
AcDbEntity
  8
エンボス
  6
Continuous
100
AcDbLine
 10
471.007008456766
 20
1361.070393950034
 30
0.0
 11
478.007008456766
 21
1359.070393950034
 31
0.0
  0
LINE
  5
93A
330
2
100
AcDbEntity
  8
エンボス
  6
Continuous
100
AcDbLine
 10
972.0070084567661
 20
1356.070393950034
 30
0.0
 11
965.007008456766
 21
1354.070393950034
 31
0.0
  0
LINE
  5
947
330
2
100
AcDbEntity
  8
本体
  6
Continuous
100
AcDbLine
 10
972.0070084567661
 20
1380.570393950034
 30
0.0
 11
972.0070084567661
 21
1338.570393950034
 31
0.0
  0
LINE
  5
948
330
2
100
AcDbEntity
  8
本体
  6
Continuous
100
AcDbLine
 10
965.007008456766
 20
1380.570393950034
 30
0.0
 11
965.007008456766
 21
1338.570393950034
 31
0.0
  0
LINE
  5
979
330
2
100
AcDbEntity
  8
エンボス
  6
Continuous
100
AcDbLine
 10
972.0070084567661
 20
1347.070393950034
 30
0.0
 11
965.007008456766
 21
1345.070393950034
 31
0.0
  0
LINE
  5
97A
330
2
100
AcDbEntity
  8
エンボス
  6
Continuous
100
AcDbLine
 10
965.007008456766
 20
1342.070393950034
 30
0.0
 11
972.0070084567661
 21
1340.070393950034
 31
0.0
  0
LINE
  5
97B
330
2
100
AcDbEntity
  8
本体
  6
Continuous
100
AcDbLine
 10
929.9070084567656
 20
1380.570393950034
 30
0.0
 11
965.2070084567657
 21
1388.570393950034
 31
0.0
  0
LINE
  5
9AB
330
2
100
AcDbEntity
  8
本体
  6
Continuous
100
AcDbLine
 10
965.2070084567657
 20
1380.570393950034
 30
0.0
 11
972.0070084567661
 21
1382.111470437286
 31
0.0
  0
LINE
  5
9AD
330
2
100
AcDbEntity
  8
エンボス
  6
Continuous
100
AcDbLine
 10
972.0070084567661
 20
1375.070393950034
 30
0.0
 11
965.007008456766
 21
1373.070393950034
 31
0.0
  0
LINE
  5
9AE
330
2
100
AcDbEntity
  8
エンボス
  6
Continuous
100
AcDbLine
 10
965.007008456766
 20
1370.070393950034
 30
0.0
 11
972.0070084567661
 21
1368.070393950034
 31
0.0
  0
LINE
  5
9AF
330
2
100
AcDbEntity
  8
エンボス
  6
Continuous
100
AcDbLine
 10
965.007008456766
 20
1361.070393950034
 30
0.0
 11
972.0070084567661
 21
1359.070393950034
 31
0.0
  0
LINE
  5
9B0
330
2
100
AcDbEntity
  8
本体
  6
Continuous
100
AcDbLine
 10
471.007008456766
 20
1338.570393950034
 30
0.0
 11
972.0070084567661
 21
1338.570393950034
 31
0.0
  0
LINE
  5
9B1
330
2
100
AcDbEntity
  8
本体
  6
Continuous
100
AcDbLine
 10
471.007008456766
 20
1330.570393950034
 30
0.0
 11
972.0070084567661
 21
1330.570393950034
 31
0.0
  0
LINE
  5
9B4
330
2
100
AcDbEntity
  8
エンボス
  6
Continuous
100
AcDbLine
 10
478.007008456766
 20
1306.070393950034
 30
0.0
 11
471.007008456766
 21
1304.070393950034
 31
0.0
  0
LINE
  5
9B7
330
2
100
AcDbEntity
  8
本体
  6
Continuous
100
AcDbLine
 10
478.007008456766
 20
1330.570393950034
 30
0.0
 11
478.007008456766
 21
1288.570393950034
 31
0.0
  0
LINE
  5
9B8
330
2
100
AcDbEntity
  8
本体
  6
Continuous
100
AcDbLine
 10
471.007008456766
 20
1330.570393950034
 30
0.0
 11
471.007008456766
 21
1288.570393950034
 31
0.0
  0
LINE
  5
9B9
330
2
100
AcDbEntity
  8
エンボス
  6
Continuous
100
AcDbLine
 10
478.007008456766
 20
1297.070393950034
 30
0.0
 11
471.007008456766
 21
1295.070393950034
 31
0.0
  0
LINE
  5
9BA
330
2
100
AcDbEntity
  8
エンボス
  6
Continuous
100
AcDbLine
 10
471.007008456766
 20
1292.070393950034
 30
0.0
 11
478.007008456766
 21
1290.070393950034
 31
0.0
  0
LINE
  5
9BF
330
2
100
AcDbEntity
  8
エンボス
  6
Continuous
100
AcDbLine
 10
478.007008456766
 20
1325.070393950034
 30
0.0
 11
471.007008456766
 21
1323.070393950034
 31
0.0
  0
LINE
  5
9C0
330
2
100
AcDbEntity
  8
エンボス
  6
Continuous
100
AcDbLine
 10
471.007008456766
 20
1320.070393950034
 30
0.0
 11
478.007008456766
 21
1318.070393950034
 31
0.0
  0
LINE
  5
9C1
330
2
100
AcDbEntity
  8
エンボス
  6
Continuous
100
AcDbLine
 10
471.007008456766
 20
1311.070393950034
 30
0.0
 11
478.007008456766
 21
1309.070393950034
 31
0.0
  0
LINE
  5
9C5
330
2
100
AcDbEntity
  8
エンボス
  6
Continuous
100
AcDbLine
 10
972.0070084567661
 20
1306.070393950034
 30
0.0
 11
965.007008456766
 21
1304.070393950034
 31
0.0
  0
LINE
  5
9D2
330
2
100
AcDbEntity
  8
本体
  6
Continuous
100
AcDbLine
 10
972.0070084567661
 20
1330.570393950034
 30
0.0
 11
972.0070084567661
 21
1288.570393950034
 31
0.0
  0
LINE
  5
9D3
330
2
100
AcDbEntity
  8
本体
  6
Continuous
100
AcDbLine
 10
965.007008456766
 20
1330.570393950034
 30
0.0
 11
965.007008456766
 21
1288.570393950034
 31
0.0
  0
LINE
  5
A04
330
2
100
AcDbEntity
  8
エンボス
  6
Continuous
100
AcDbLine
 10
972.0070084567661
 20
1297.070393950034
 30
0.0
 11
965.007008456766
 21
1295.070393950034
 31
0.0
  0
LINE
  5
A05
330
2
100
AcDbEntity
  8
エンボス
  6
Continuous
100
AcDbLine
 10
965.007008456766
 20
1292.070393950034
 30
0.0
 11
972.0070084567661
 21
1290.070393950034
 31
0.0
  0
LINE
  5
A06
330
2
100
AcDbEntity
  8
本体
  6
Continuous
100
AcDbLine
 10
929.9070084567656
 20
1330.570393950034
 30
0.0
 11
965.2070084567657
 21
1338.570393950034
 31
0.0
  0
LINE
  5
A36
330
2
100
AcDbEntity
  8
本体
  6
Continuous
100
AcDbLine
 10
965.2070084567657
 20
1330.570393950034
 30
0.0
 11
972.0070084567661
 21
1332.111470437286
 31
0.0
  0
LINE
  5
A38
330
2
100
AcDbEntity
  8
エンボス
  6
Continuous
100
AcDbLine
 10
972.0070084567661
 20
1325.070393950034
 30
0.0
 11
965.007008456766
 21
1323.070393950034
 31
0.0
  0
LINE
  5
A39
330
2
100
AcDbEntity
  8
エンボス
  6
Continuous
100
AcDbLine
 10
965.007008456766
 20
1320.070393950034
 30
0.0
 11
972.0070084567661
 21
1318.070393950034
 31
0.0
  0
LINE
  5
A3A
330
2
100
AcDbEntity
  8
エンボス
  6
Continuous
100
AcDbLine
 10
965.007008456766
 20
1311.070393950034
 30
0.0
 11
972.0070084567661
 21
1309.070393950034
 31
0.0
  0
LINE
  5
A3C
330
2
100
AcDbEntity
  8
本体
  6
Continuous
100
AcDbLine
 10
471.007008456766
 20
1280.570393950034
 30
0.0
 11
972.0070084567661
 21
1280.570393950034
 31
0.0
  0
LINE
  5
A3D
330
2
100
AcDbEntity
  8
本体
  6
Continuous
100
AcDbLine
 10
471.007008456766
 20
1288.570393950034
 30
0.0
 11
972.0070084567661
 21
1288.570393950034
 31
0.0
  0
LINE
  5
A40
330
2
100
AcDbEntity
  8
エンボス
  6
Continuous
100
AcDbLine
 10
471.007008456766
 20
1292.070393950034
 30
0.0
 11
478.007008456766
 21
1290.070393950034
 31
0.0
  0
LINE
  5
A42
330
2
100
AcDbEntity
  8
本体
  6
Continuous
100
AcDbLine
 10
929.9070084567656
 20
1280.570393950034
 30
0.0
 11
965.2070084567657
 21
1288.570393950034
 31
0.0
  0
LINE
  5
A5B
330
2
100
AcDbEntity
  8
本体
  6
Continuous
100
AcDbLine
 10
965.2070084567657
 20
1280.570393950034
 30
0.0
 11
972.0070084567661
 21
1282.111470437286
 31
0.0
  0
LINE
  5
A5C
330
2
100
AcDbEntity
  8
エンボス
  6
Continuous
100
AcDbLine
 10
965.007008456766
 20
1292.070393950034
 30
0.0
 11
972.0070084567661
 21
1290.070393950034
 31
0.0
  0
LINE
  5
A5D
330
2
100
AcDbEntity
  8
嵩上平面
  6
HIDDEN
 48
3.0
370
     9
100
AcDbLine
 10
969.507008456766
 20
1294.570392950034
 30
0.0
 11
473.5070084567659
 21
1294.570392950034
 31
0.0
  0
LINE
  5
A5E
330
2
100
AcDbEntity
  8
嵩上平面
  6
HIDDEN
 48
3.0
370
     9
100
AcDbLine
 10
969.507008456766
 20
1624.570394950034
 30
0.0
 11
473.5070084567659
 21
1624.570394950034
 31
0.0
  0
DIMENSION
  5
BA0
330
2
100
AcDbEntity
  8
寸法線
 48
3.0
100
AcDbDimension
  2
*D22
 10
969.0070084567659
 20
550.4863152268862
 30
0.0
 11
721.507008456766
 21
570.4863152268862
 31
0.0
 70
    32
 71
     5
 42
495.0
  3
ISO-25
100
AcDbAlignedDimension
 13
474.007008456766
 23
631.3506882413296
 33
0.0
 14
969.0070084567659
 24
631.9267296430608
 34
0.0
100
AcDbRotatedDimension
  0
MTEXT
  5
C05
330
2
100
AcDbEntity
  8
外枠
  6
Continuous
 48
100.0
370
     9
100
AcDbMText
 10
1038.975343934131
 20
43.7816999552947
 30
0.0
 40
25.0
 41
122.0406
 71
     1
 72
     5
  1
SS400
 73
     1
 44
1.0
1001
ACAD
1000
MTEXTBEGIN
1070
    73
1070
     1
1070
    44
1040
1.0
1070
    74
1070
     0
1000
MTEXTEND
  0
MTEXT
  5
C08
330
2
100
AcDbEntity
  8
外枠
  6
Continuous
 48
100.0
370
     9
100
AcDbMText
 10
1159.385398923399
 20
148.6111115828503
 30
0.0
 40
20.0
 41
1015.1375
 71
     1
 72
     5
  1
表\P面\P処\P理
 73
     1
 44
1.0
1001
ACAD
1000
MTEXTBEGIN
1070
    73
1070
     1
1070
    44
1040
1.0
1070
    74
1070
     0
1000
MTEXTEND
  0
LINE
  5
C09
330
2
100
AcDbEntity
  8
外枠
  6
Continuous
 48
100.0
370
     9
100
AcDbLine
 10
1188.531791166651
 20
155.3992728207999
 30
0.0
 11
1188.531791166651
 21
9.999999999996816
 31
0.0
  0
LINE
  5
C0A
330
2
100
AcDbEntity
  8
外枠
  6
Continuous
 48
100.0
370
     9
100
AcDbLine
 10
1153.531306970095
 20
155.3992728207999
 30
0.0
 11
1153.531306970095
 21
9.999999999996816
 31
0.0
  0
LINE
  5
C0B
330
2
100
AcDbEntity
  8
外枠
 48
3.0
100
AcDbLine
 10
1188.531791166651
 20
82.6996364103984
 30
0.0
 11
1593.951336296073
 21
82.6996364103984
 31
0.0
  0
LINE
  5
C13
330
2
100
AcDbEntity
  8
本体
  6
Continuous
100
AcDbLine
 10
1947.936963014385
 20
1674.570393950034
 30
0.0
 11
1947.936963014385
 21
1670.070393950034
 31
0.0
  0
LINE
  5
C14
330
2
100
AcDbEntity
  8
本体
  6
Continuous
100
AcDbLine
 10
1947.936963014385
 20
1249.070393950034
 30
0.0
 11
1947.936963014385
 21
1244.570393950034
 31
0.0
  0
LINE
  5
C53
330
2
100
AcDbEntity
  8
本体
  6
Continuous
100
AcDbLine
 10
935.4070084567659
 20
702.4863152268862
 30
0.0
 11
966.7070084567662
 21
702.4863152268864
 31
0.0
  0
INSERT
  5
D8F
330
2
100
AcDbEntity
  8
本体
 48
3.0
100
AcDbBlockReference
  2
清水
 10
2387.385592047314
 20
155.3992728208
 30
0.0
  0
MTEXT
  5
D90
330
2
100
AcDbEntity
  8
外枠
  6
Continuous
 48
100.0
370
     9
100
AcDbMText
 10
1202.677957061338
 20
120.1377642323818
 30
0.0
 40
25.0
 41
1015.1375
 71
     1
 72
     5
  1
溶融亜鉛めっき仕上
 73
     1
 44
1.0
1001
ACAD
1000
MTEXTBEGIN
1070
    73
1070
     1
1070
    44
1040
1.0
1070
    74
1070
     0
1000
MTEXTEND
  0
MTEXT
  5
E72
330
2
100
AcDbEntity
  8
外枠
  6
Continuous
 48
100.0
370
     9
100
AcDbMText
 10
2509.985545378613
 20
121.2206105686568
 30
0.0
 40
23.47884
 41
274.1381
 71
     1
 72
     5
  1
'14・09・01
 73
     1
 44
1.0
1001
ACAD
1000
MTEXTBEGIN
1070
    73
1070
     1
1070
    44
1040
1.0
1070
    74
1070
     0
1000
MTEXTEND
  0
INSERT
  5
E73
330
2
100
AcDbEntity
  8
外枠
 48
3.0
100
AcDbBlockReference
  2
鎌下
 10
2271.730765417811
 20
155.3992728207995
 30
0.0
  0
DIMENSION
  5
EFE
330
2
100
AcDbEntity
  8
寸法線
 48
3.0
100
AcDbDimension
  2
*D25
 10
827.507008456766
 20
820.4863152268863
 30
0.0
 11
899.512084598898
 21
840.4863152268863
 31
0.0
 70
    32
 71
     5
 42
35.30000000000018
  3
ISO-25
100
AcDbAlignedDimension
 13
792.2070084567658
 23
748.4863152268863
 33
0.0
 14
827.507008456766
 24
748.4863152268863
 34
0.0
100
AcDbRotatedDimension
1001
ACAD
1000
DSTYLE
1002
{
1070
   279
1070
     0
1002
}
  0
INSERT
  5
F68
330
2
100
AcDbEntity
  8
嵩上断面
 48
3.0
100
AcDbBlockReference
  2
P-H55
 10
1959.936963014385
 20
1664.570394950034
 30
0.0
  0
INSERT
  5
F6A
330
2
100
AcDbEntity
  8
ゴム
  6
Continuous
100
AcDbBlockReference
  2
平ゴムパッキン
 10
2011.936960014384
 20
1254.570392950034
 30
0.0
 41
-1.0
 50
180.0
  0
INSERT
  5
F6B
330
2
100
AcDbEntity
  8
嵩上断面
 48
3.0
100
AcDbBlockReference
  2
P-H55
 10
1959.936963014385
 20
1254.570392950034
 30
0.0
 41
-1.0
 50
180.0
  0
MTEXT
  5
FD0
330
2
100
AcDbEntity
  8
外枠
  6
Continuous
 48
100.0
370
     9
100
AcDbMText
 10
1022.193186254242
 20
77.61017986570414
 30
0.0
 40
18.0
 41
122.0406
 71
     1
 72
     5
  1
【主部材】
 73
     1
 44
1.0
1001
ACAD
1000
MTEXTBEGIN
1070
    73
1070
     1
1070
    44
1040
1.0
1070
    74
1070
     0
1000
MTEXTEND
  0
MTEXT
  5
FD1
330
2
100
AcDbEntity
  8
外枠
  6
Continuous
 48
100.0
370
     9
100
AcDbMText
 10
1199.761738767627
 20
151.0819879350654
 30
0.0
 40
18.0
 41
301.8661
 71
     1
 72
     5
  1
【グレーチング】JIS　H8641
 73
     1
 44
1.0
1001
ACAD
1000
MTEXTBEGIN
1070
    73
1070
     1
1070
    44
1040
1.0
1070
    74
1070
     0
1000
MTEXTEND
  0
MTEXT
  5
FD2
330
2
100
AcDbEntity
  8
外枠
  6
Continuous
 48
100.0
370
     9
100
AcDbMText
 10
558.4353641274938
 20
136.1535564242165
 30
0.0
 40
29.0
 41
664.6118999999999
 71
     1
 72
     5
  1
国土交通省タイプ用グレーチング
 73
     1
 44
1.0
1001
ACAD
1000
MTEXTBEGIN
1070
    73
1070
     1
1070
    44
1040
1.0
1070
    74
1070
     0
1000
MTEXTEND
  0
INSERT
  5
104C
102
{ACAD_REACTORS
330
1068
102
}
330
2
100
AcDbEntity
  8
エンボス
100
AcDbBlockReference
  2
*U28
 10
494.9070084567661
 20
715.4863152268863
 30
0.0
  0
INSERT
  5
107F
102
{ACAD_REACTORS
330
10D4
102
}
330
2
100
AcDbEntity
  8
エンボス
100
AcDbBlockReference
  2
*U30
 10
492.1570084567661
 20
1459.570393950034
 30
0.0
  0
LEADER
  5
10E4
330
2
100
AcDbEntity
  8
寸法線
  6
Continuous
100
AcDbLeader
  3
ISO-25
 73
     0
 74
     0
 75
     1
 40
30.0
 41
211.3705583756345
 76
     3
 10
969.2162555631439
 20
1547.840927038453
 30
0.0
 10
1024.926933681799
 20
1614.051605157108
 30
0.0
 10
1039.926933681799
 20
1614.051605157108
 30
0.0
340
10E5
1001
ACAD
1000
DSTYLE
1002
{
1070
     5
1000
OPEN30
1070
    77
1070
     1
1070
   147
1040
0.5
1070
   342
1005
110
1002
}
  0
MTEXT
  5
10E5
102
{ACAD_REACTORS
330
10E4
102
}
330
2
100
AcDbEntity
  8
寸法線
  6
Continuous
100
AcDbMText
 10
1044.926933681799
 20
1619.051605157108
 30
0.0
 40
30.0
 41
0.0
 71
     7
 72
     1
  1
GIB7\U+00D74\U+00D750
 73
     1
 44
1.0
1001
ACAD
1000
MTEXTBEGIN
1070
    73
1070
     1
1070
    44
1040
1.0
1070
    74
1070
     0
1000
MTEXTEND
  0
LEADER
  5
10E6
330
2
100
AcDbEntity
  8
寸法線
  6
Continuous
100
AcDbLeader
  3
ISO-25
 73
     0
 74
     0
 75
     1
 40
30.0
 41
35.78680203045685
 76
     3
 10
969.2162555631439
 20
1430.785998106231
 30
0.0
 10
1024.926933681799
 20
1496.996676224886
 30
0.0
 10
1039.926933681799
 20
1496.996676224886
 30
0.0
340
10E7
1001
ACAD
1000
DSTYLE
1002
{
1070
     5
1000
OPEN30
1070
    77
1070
     1
1070
   147
1040
0.5
1070
   342
1005
110
1002
}
  0
MTEXT
  5
10E7
102
{ACAD_REACTORS
330
10E6
102
}
330
2
100
AcDbEntity
  8
寸法線
  6
Continuous
100
AcDbMText
 10
1044.926933681799
 20
1501.996676224886
 30
0.0
 40
30.0
 41
0.0
 71
     7
 72
     1
  1
TB
 73
     1
 44
1.0
1001
ACAD
1000
MTEXTBEGIN
1070
    73
1070
     1
1070
    44
1040
1.0
1070
    74
1070
     0
1000
MTEXTEND
  0
ENDSEC
  0
SECTION
  2
OBJECTS
  0
DICTIONARY
  5
7
330
0
100
AcDbDictionary
281
     1
  3
ACAD_ASSOCNETWORK
350
1060
  3
ACAD_CIP_PREVIOUS_PRODUCT_INFO
350
DF6
  3
ACAD_COLOR
350
DD6
  3
ACAD_DETAILVIEWSTYLE
350
DEF
  3
ACAD_GROUP
350
69C
  3
ACAD_LAYOUT
350
682
  3
ACAD_MATERIAL
350
DA4
  3
ACAD_MLEADERSTYLE
350
DEB
  3
ACAD_MLINESTYLE
350
69D
  3
ACAD_PLOTSETTINGS
350
69E
  3
ACAD_PLOTSTYLENAME
350
6
  3
ACAD_SCALELIST
350
DD9
  3
ACAD_SECTIONVIEWSTYLE
350
DED
  3
ACAD_TABLESTYLE
350
DD7
  3
ACAD_VISUALSTYLE
350
DBD
  3
ACDB_RECOMPOSE_DATA
350
114E
  3
AcDbVariableDictionary
350
E51
  3
DWGPROPS
350
114F
  0
DICTIONARY
  5
E14
330
697
100
AcDbDictionary
280
     1
281
     1
  0
DICTIONARY
  5
E68
330
68F
100
AcDbDictionary
280
     1
281
     1
  3
ACAD_LAYERSTATES
360
E69
  0
DICTIONARY
  5
DF7
330
64
100
AcDbDictionary
280
     1
281
     1
  3
ADSK_XREC_LAYER_RECONCILED
360
DF8
  0
DICTIONARY
  5
DF9
330
6A
100
AcDbDictionary
280
     1
281
     1
  3
ADSK_XREC_LAYER_RECONCILED
360
DFA
  0
DICTIONARY
  5
DFB
330
4
100
AcDbDictionary
280
     1
281
     1
  3
ADSK_XREC_LAYER_RECONCILED
360
DFC
  0
DICTIONARY
  5
DFF
330
67
100
AcDbDictionary
280
     1
281
     1
  3
ADSK_XREC_LAYER_RECONCILED
360
E00
  0
DICTIONARY
  5
E01
330
11
100
AcDbDictionary
280
     1
281
     1
  3
ADSK_XREC_LAYER_RECONCILED
360
E02
  0
DICTIONARY
  5
E05
330
D91
100
AcDbDictionary
280
     1
281
     1
  3
ADSK_XREC_LAYER_RECONCILED
360
E06
  0
DICTIONARY
  5
E07
330
D92
100
AcDbDictionary
280
     1
281
     1
  3
ADSK_XREC_LAYER_RECONCILED
360
E08
  0
DICTIONARY
  5
F6D
330
F6C
100
AcDbDictionary
280
     1
281
     1
  0
DICTIONARY
  5
67D
330
2
100
AcDbDictionary
280
     1
281
     1
  3
ACAD_ASSOCNETWORK
360
105E
  3
ACAD_LAYOUTSELFREF
360
D45
  3
ACAD_SORTENTS
360
EC8
  0
DICTIONARY
  5
684
330
683
100
AcDbDictionary
280
     1
281
     1
  3
ACAD_LAYOUTSELFREF
360
D52
  0
DICTIONARY
  5
68A
330
689
100
AcDbDictionary
280
     1
281
     1
  3
ACAD_LAYOUTSELFREF
360
D53
  0
DICTIONARY
  5
E62
330
E61
100
AcDbDictionary
280
     1
281
     1
  0
DICTIONARY
  5
1194
330
1049
100
AcDbDictionary
280
     1
281
     1
  3
AcDbBlockTableRecordData
360
1195
  0
DICTIONARY
  5
1197
330
107C
100
AcDbDictionary
280
     1
281
     1
  3
AcDbBlockTableRecordData
360
1198
  0
DICTIONARY
  5
1060
102
{ACAD_REACTORS
330
7
102
}
330
7
100
AcDbDictionary
281
     1
  3
ACAD_ASSOCNETWORK
350
1061
  0
XRECORD
  5
DF6
102
{ACAD_REACTORS
330
7
102
}
330
7
100
AcDbXrecord
280
     1
300
ACDLT
300
2014
300
ACDLT_F_S
  0
DICTIONARY
  5
DD6
102
{ACAD_REACTORS
330
7
102
}
330
7
100
AcDbDictionary
281
     1
  0
DICTIONARY
  5
DEF
102
{ACAD_REACTORS
330
7
102
}
330
7
100
AcDbDictionary
281
     1
  3
Imperial24
350
F4F
  3
Metric50
350
DF0
  0
DICTIONARY
  5
69C
102
{ACAD_REACTORS
330
7
102
}
330
7
100
AcDbDictionary
281
     1
  0
DICTIONARY
  5
682
102
{ACAD_REACTORS
330
7
102
}
330
7
100
AcDbDictionary
281
     1
  3
Layout1
350
688
  3
Layout2
350
68E
  3
Model
350
681
  0
DICTIONARY
  5
DA4
102
{ACAD_REACTORS
330
7
102
}
330
7
100
AcDbDictionary
281
     1
  3
ByBlock
350
DAD
  3
ByLayer
350
DA5
  3
Global
350
DB5
  0
DICTIONARY
  5
DEB
102
{ACAD_REACTORS
330
7
102
}
330
7
100
AcDbDictionary
281
     1
  3
Standard
350
DEC
  0
DICTIONARY
  5
69D
102
{ACAD_REACTORS
330
7
102
}
330
7
100
AcDbDictionary
281
     1
  3
Standard
350
69F
  0
DICTIONARY
  5
69E
102
{ACAD_REACTORS
330
7
102
}
330
7
100
AcDbDictionary
281
     1
  0
ACDBDICTIONARYWDFLT
  5
6
102
{ACAD_REACTORS
330
7
102
}
330
7
100
AcDbDictionary
281
     1
  3
Normal
350
5
100
AcDbDictionaryWithDefault
340
5
  0
DICTIONARY
  5
DD9
102
{ACAD_REACTORS
330
7
102
}
330
7
100
AcDbDictionary
281
     1
  3
A0
350
DDA
  3
A1
350
DDB
  3
A2
350
DDC
  3
A3
350
DDD
  3
A4
350
DDE
  3
A5
350
DDF
  3
A6
350
DE0
  3
A7
350
DE1
  3
A8
350
DE2
  3
A9
350
DE3
  3
B0
350
DE4
  3
B1
350
DE5
  3
B2
350
DE6
  3
B3
350
DE7
  3
B4
350
DE8
  3
B5
350
DE9
  3
B6
350
DEA
  0
DICTIONARY
  5
DED
102
{ACAD_REACTORS
330
7
102
}
330
7
100
AcDbDictionary
281
     1
  3
Imperial24
350
F4E
  3
Metric50
350
DEE
  0
DICTIONARY
  5
DD7
102
{ACAD_REACTORS
330
7
102
}
330
7
100
AcDbDictionary
281
     1
  3
Standard
350
DD8
  0
DICTIONARY
  5
DBD
102
{ACAD_REACTORS
330
7
102
}
330
7
100
AcDbDictionary
281
     1
  3
2dWireframe
350
DC3
  3
Basic
350
DC2
  3
Brighten
350
DC9
  3
ColorChange
350
DCD
  3
Conceptual
350
DC6
  3
Dim
350
DC8
  3
EdgeColorOff
350
DD5
  3
Facepattern
350
DCC
  3
Flat
350
DBE
  3
FlatWithEdges
350
DBF
  3
Gouraud
350
DC0
  3
GouraudWithEdges
350
DC1
  3
Hidden
350
DC5
  3
JitterOff
350
DD3
  3
Linepattern
350
DCB
  3
OverhangOff
350
DD4
  3
Realistic
350
DC7
  3
Shaded
350
DD2
  3
Shaded with edges
350
DD1
  3
Shades of Gray
350
DCE
  3
Sketchy
350
DCF
  3
Thicken
350
DCA
  3
Wireframe
350
DC4
  3
X-Ray
350
DD0
  0
XRECORD
  5
114E
102
{ACAD_REACTORS
330
7
102
}
330
7
100
AcDbXrecord
280
     1
 90
        1
330
DD8
  0
DICTIONARY
  5
E51
102
{ACAD_REACTORS
330
7
102
}
330
7
100
AcDbDictionary
281
     1
  3
CANNOSCALE
350
E56
  3
CMLEADERSTYLE
350
E53
  3
CTABLESTYLE
350
E52
  3
CVIEWDETAILSTYLE
350
E54
  3
CVIEWSECTIONSTYLE
350
E55
  3
DIMASSOC
350
E59
  3
INDEXCTL
350
E58
  3
SORTENTS
350
E57
  3
XCLIPFRAME
350
114C
  0
XRECORD
  5
114F
102
{ACAD_REACTORS
330
7
102
}
330
7
100
AcDbXrecord
280
     1
  1
DWGPROPS COOKIE
  2

  3

  4

  6

  7

  8
takara
  9

300
=
301
=
302
=
303
=
304
=
305
=
306
=
307
=
308
=
309
=
 40
0.1196863078703704
 41
2453510.558637211
 42
2457542.716420845
  1

 90
        0
  0
DICTIONARY
  5
E69
102
{ACAD_REACTORS
330
E68
102
}
330
E68
100
AcDbDictionary
281
     1
  3
_LAYISO_STATE
350
1042
1001
AcLayerTools
1000
681
1000
0
  0
XRECORD
  5
DF8
102
{ACAD_REACTORS
330
DF7
102
}
330
DF7
100
AcDbXrecord
280
     1
290
     1
  0
XRECORD
  5
DFA
102
{ACAD_REACTORS
330
DF9
102
}
330
DF9
100
AcDbXrecord
280
     1
290
     1
  0
XRECORD
  5
DFC
102
{ACAD_REACTORS
330
DFB
102
}
330
DFB
100
AcDbXrecord
280
     1
290
     1
  0
XRECORD
  5
E00
102
{ACAD_REACTORS
330
DFF
102
}
330
DFF
100
AcDbXrecord
280
     1
290
     1
  0
XRECORD
  5
E02
102
{ACAD_REACTORS
330
E01
102
}
330
E01
100
AcDbXrecord
280
     1
290
     1
  0
XRECORD
  5
E06
102
{ACAD_REACTORS
330
E05
102
}
330
E05
100
AcDbXrecord
280
     1
290
     1
  0
XRECORD
  5
E08
102
{ACAD_REACTORS
330
E07
102
}
330
E07
100
AcDbXrecord
280
     1
290
     1
  0
DICTIONARY
  5
105E
102
{ACAD_REACTORS
330
67D
102
}
330
67D
100
AcDbDictionary
281
     1
  3
ACAD_ASSOCNETWORK
350
105F
  0
XRECORD
  5
D45
102
{ACAD_REACTORS
330
67D
102
}
330
67D
100
AcDbXrecord
280
     1
340
2
  0
SORTENTSTABLE
  5
EC8
102
{ACAD_REACTORS
330
67D
102
}
330
67D
100
AcDbSortentsTable
330
2
331
3A
  5
3A
331
1B
  5
1B
331
59
  5
59
331
78B
  5
78C
331
8A2
  5
8A3
331
864
  5
865
331
2A
  5
2A
331
49
  5
49
331
7D8
  5
7D9
331
816
  5
817
331
92D
  5
92E
331
8EF
  5
8F0
331
1A
  5
1A
331
58
  5
58
331
8A1
  5
8A2
331
863
  5
864
331
C05
  5
C07
331
29
  5
29
331
48
  5
48
331
209
  5
238
331
799
  5
79A
331
92C
  5
92D
331
8EE
  5
8EF
331
C14
  5
C46
331
57
  5
57
331
19
  5
19
331
38
  5
38
331
824
  5
825
331
9B7
  5
9B8
331
47
  5
47
331
28
  5
28
331
8AF
  5
8B0
331
C13
  5
C14
331
56
  5
56
331
18
  5
18
331
37
  5
37
331
309
  5
30A
331
788
  5
789
331
93A
  5
93B
331
46
  5
46
331
27
  5
27
331
5BD
  5
5C2
331
832
  5
833
331
813
  5
814
331
9C5
  5
9C6
331
55
  5
55
331
17
  5
17
331
308
  5
309
331
8BD
  5
8BE
331
89E
  5
89F
331
45
  5
45
331
26
  5
26
331
5BC
  5
5BD
331
831
  5
832
331
929
  5
92A
331
948
  5
949
331
54
  5
54
331
8BC
  5
8BD
331
9B4
  5
9B5
331
63
  5
63
331
44
  5
44
331
25
  5
25
331
5BB
  5
5BC
331
947
  5
948
331
53
  5
53
331
820
  5
821
331
62
  5
62
331
43
  5
43
331
24
  5
24
331
35B
  5
362
331
5BA
  5
5BB
331
810
  5
811
331
8AB
  5
8AC
331
52
  5
52
331
33
  5
33
331
B7
  5
B7
331
14
  5
14
331
89B
  5
89C
331
936
  5
937
331
61
  5
61
331
42
  5
42
331
23
  5
23
331
35A
  5
35B
331
8AA
  5
8AB
331
926
  5
927
331
9C1
  5
9C2
331
A3D
  5
A3E
331
51
  5
51
331
32
  5
32
331
13
  5
13
331
89A
  5
89B
331
935
  5
936
331
9B1
  5
9B2
331
60
  5
60
331
41
  5
41
331
22
  5
22
331
359
  5
35A
331
8A9
  5
8AA
331
925
  5
926
331
9C0
  5
9C1
331
A3C
  5
A3D
331
50
  5
50
331
31
  5
31
331
B5
  5
B5
331
12
  5
12
331
899
  5
89A
331
9B0
  5
9B1
331
934
  5
935
331
40
  5
40
331
167
  5
168
331
21
  5
21
331
358
  5
359
331
924
  5
925
331
9BF
  5
9C0
331
D90
  5
E72
331
B4
  5
B4
331
321
  5
330
331
898
  5
899
331
9AF
  5
9B0
331
166
  5
167
331
20
  5
20
331
330
  5
33D
331
A3A
  5
A3B
331
923
  5
924
331
D8F
  5
D90
331
B3
  5
B3
331
137
  5
138
331
320
  5
321
331
9AE
  5
9AF
331
310
  5
31D
331
631
  5
63F
331
A39
  5
A3A
331
922
  5
923
331
B2
  5
B2
331
136
  5
137
331
667
  5
668
331
9AD
  5
9AE
331
FF
  5
100
331
630
  5
631
331
A38
  5
A39
331
135
  5
136
331
10E
  5
130
331
B1
  5
B1
331
666
  5
667
331
63F
  5
640
331
FE
  5
FF
331
62F
  5
630
331
920
  5
921
331
134
  5
135
331
10D
  5
10E
331
B0
  5
B0
331
665
  5
666
331
9AB
  5
9AC
331
1BF
  5
1C0
331
FD
  5
FE
331
62E
  5
62F
331
74F
  5
750
331
A36
  5
A37
331
9BA
  5
9BB
331
10C
  5
10D
331
AF
  5
AF
331
664
  5
665
331
8F0
  5
8F1
331
161
  5
166
331
142
  5
14F
331
1BE
  5
1BF
331
FC
  5
FD
331
74E
  5
74F
331
654
  5
659
331
62D
  5
62E
331
97B
  5
97C
331
9B9
  5
9BA
331
AE
  5
AE
331
A06
  5
A07
331
160
  5
161
331
141
  5
142
331
FB
  5
FB
331
62C
  5
62D
331
74D
  5
74E
331
97A
  5
97B
331
9B8
  5
9B9
331
E73
  5
EBF
331
6D8
  5
6E8
331
A05
  5
A06
331
15F
  5
160
331
140
  5
141
331
FA
  5
FA
331
70E
  5
70F
331
979
  5
97A
331
E72
  5
E73
331
16E
  5
170
331
14F
  5
15C
331
AC
  5
AC
331
6D7
  5
6D8
331
A42
  5
A43
331
A04
  5
A05
331
15E
  5
15F
331
13F
  5
140
331
BB
  5
BB
331
AB
  5
AB
331
16D
  5
16E
331
6FD
  5
6FE
331
6D6
  5
6D7
331
71C
  5
71D
331
15D
  5
15E
331
13E
  5
13F
331
F8
  5
F8
331
BA
  5
BA
331
7A7
  5
7A8
331
EFE
  5
EFE
331
6D5
  5
6D6
331
65F
  5
664
331
71B
  5
71C
331
A40
  5
A41
331
13D
  5
13E
331
F7
  5
F7
331
15C
  5
15D
331
6EC
  5
6F9
331
7A6
  5
7A7
331
9D3
  5
9D4
331
206
  5
209
331
6D4
  5
6D5
331
65E
  5
65F
331
A5E
  5
BA0
331
13C
  5
13D
331
F6
  5
F6
331
B8
  5
B8
331
307
  5
308
331
6EB
  5
6EC
331
70A
  5
70B
331
9D2
  5
9D3
331
6FA
  5
6FB
331
65D
  5
65E
331
795
  5
796
331
A5D
  5
A5E
331
13B
  5
13C
331
F5
  5
F5
331
306
  5
307
331
6EA
  5
6EB
331
709
  5
70A
331
785
  5
786
331
169
  5
16D
331
6F9
  5
6FA
331
65C
  5
65D
331
794
  5
795
331
A5C
  5
A5D
331
F4
  5
F4
331
13A
  5
13B
331
305
  5
306
331
6E9
  5
6EA
331
708
  5
709
331
81F
  5
820
331
784
  5
785
331
103
  5
10C
331
6D1
  5
6D4
331
80F
  5
810
331
793
  5
794
331
65B
  5
65C
331
A5B
  5
A5C
331
304
  5
305
331
F3
  5
F3
331
139
  5
13A
331
6E8
  5
6E9
331
81E
  5
81F
331
783
  5
784
331
66A
  5
67C
331
102
  5
103
331
80E
  5
80F
331
65A
  5
65B
331
303
  5
304
331
138
  5
139
331
782
  5
783
331
669
  5
66A
331
BA0
  5
BB3
331
5F
  5
5F
331
101
  5
102
331
80D
  5
80E
331
659
  5
65A
331
C53
  5
C68
331
4F
  5
4F
331
238
  5
239
331
302
  5
303
331
F1
  5
F1
331
781
  5
782
331
668
  5
669
331
5E
  5
5E
331
3F
  5
3F
331
1C2
  5
1C3
331
357
  5
358
331
100
  5
101
331
80C
  5
80D
331
C0B
  5
C13
331
4E
  5
4E
331
2F
  5
2F
331
301
  5
302
331
897
  5
898
331
640
  5
654
331
5D
  5
5D
331
3E
  5
3E
331
1F
  5
1F
331
1C1
  5
1C2
331
356
  5
357
331
C0A
  5
C0B
331
4D
  5
4D
331
31F
  5
320
331
365
  5
36A
331
300
  5
301
331
77F
  5
780
331
703
  5
704
331
5C
  5
5C
331
3D
  5
3D
331
1E
  5
1E
331
30F
  5
310
331
80A
  5
80B
331
78E
  5
78F
331
C09
  5
C0A
331
4C
  5
4C
331
2FF
  5
300
331
364
  5
365
331
31E
  5
31F
331
33D
  5
34A
331
895
  5
896
331
819
  5
81A
331
702
  5
703
331
3C
  5
3C
331
5B
  5
5B
331
8A4
  5
8A5
331
78D
  5
78E
331
C08
  5
C09
331
4B
  5
4B
331
2C
  5
2C
331
2FE
  5
2FF
331
363
  5
364
331
31D
  5
31E
331
818
  5
819
331
92F
  5
930
331
7DA
  5
7DB
331
701
  5
702
331
3B
  5
3B
331
1C
  5
1C
331
5A
  5
5A
331
8A3
  5
8A4
331
865
  5
866
331
78C
  5
78D
331
2B
  5
2B
331
4A
  5
4A
331
2FD
  5
2FE
331
362
  5
363
331
817
  5
818
331
92E
  5
92F
331
7D9
  5
7DA
331
700
  5
701
  0
XRECORD
  5
D52
102
{ACAD_REACTORS
330
684
102
}
330
684
100
AcDbXrecord
280
     1
340
683
  0
XRECORD
  5
D53
102
{ACAD_REACTORS
330
68A
102
}
330
68A
100
AcDbXrecord
280
     1
340
689
  0
DICTIONARY
  5
1195
102
{ACAD_REACTORS
330
1194
102
}
330
1194
100
AcDbDictionary
280
     1
281
     1
  3
Edit
360
1196
  0
DICTIONARY
  5
1198
102
{ACAD_REACTORS
330
1197
102
}
330
1197
100
AcDbDictionary
280
     1
281
     1
  3
Edit
360
1199
  0
ACDBASSOCNETWORK
  5
1061
102
{ACAD_REACTORS
330
1060
102
}
330
1060
100
AcDbAssocAction
 90
        1
 90
        1
330
0
360
0
 90
        0
 90
        0
 90
        0
100
AcDbAssocNetwork
 90
        0
 90
        1
 90
        1
330
105F
 90
        1
330
105F
  0
ACDBDETAILVIEWSTYLE
  5
F4F
102
{ACAD_XDICTIONARY
360
1192
102
}
102
{ACAD_REACTORS
330
DEF
102
}
330
DEF
100
AcDbModelDocViewStyle
 70
     0
  3
Imperial24
290
     0
100
AcDbDetailViewStyle
 70
     0
 71
     0
 90
        3
 71
     1
340
9
 40
0.24
340
0
 40
0.24
300

 40
0.36
280
     3
 71
     2
340
8
 90
       25
 71
     3
340
9
 40
0.24
 90
        1
 40
0.75
 90
        1
300
%<\AcVar ViewType \f "%tc1">% %<\AcVar ViewDetailId>%\PSCALE %<\AcVar ViewScale \f "%sn">%
 71
     4
340
8
 90
       25
340
8
 90
       25
280
     0
  0
ACDBDETAILVIEWSTYLE
  5
DF0
102
{ACAD_XDICTIONARY
360
118E
102
}
102
{ACAD_REACTORS
330
DEF
102
}
330
DEF
100
AcDbModelDocViewStyle
 70
     0
  3
Metric50
290
     0
100
AcDbDetailViewStyle
 70
     0
 71
     0
 90
        3
 71
     1
340
9
 40
5.0
340
0
 40
5.0
300

 40
0.0
280
     1
 71
     2
340
8
 90
       25
 71
     3
340
9
 40
5.0
 90
        0
 40
15.0
 90
        1
300
%<\AcVar ViewDetailId>% (%<\AcVar ViewScale \f "%sn">%)
 71
     4
340
8
 90
       25
340
8
 90
       25
280
     0
  0
LAYOUT
  5
688
102
{ACAD_XDICTIONARY
360
1152
102
}
102
{ACAD_REACTORS
330
682
102
}
330
682
100
AcDbPlotSettings
  1

  2
None
  4

  6

 40
0.0
 41
0.0
 42
0.0
 43
0.0
 44
0.0
 45
0.0
 46
0.0
 47
0.0
 48
0.0
 49
0.0
140
0.0
141
0.0
142
1.0
143
1.0
 70
   688
 72
     0
 73
     0
 74
     5
  7
monochrome.ctb
 75
    16
147
1.0
148
0.0
149
0.0
100
AcDbLayout
  1
Layout1
 70
     1
 71
     1
 10
0.0
 20
0.0
 11
12.0
 21
9.0
 12
0.0
 22
0.0
 32
0.0
 14
0.0
 24
0.0
 34
0.0
 15
0.0
 25
0.0
 35
0.0
146
0.0
 13
0.0
 23
0.0
 33
0.0
 16
1.0
 26
0.0
 36
0.0
 17
0.0
 27
1.0
 37
0.0
 76
     0
330
683
  0
LAYOUT
  5
68E
102
{ACAD_XDICTIONARY
360
1154
102
}
102
{ACAD_REACTORS
330
682
102
}
330
682
100
AcDbPlotSettings
  1

  2
None
  4

  6

 40
0.0
 41
0.0
 42
0.0
 43
0.0
 44
0.0
 45
0.0
 46
0.0
 47
0.0
 48
0.0
 49
0.0
140
0.0
141
0.0
142
1.0
143
1.0
 70
   688
 72
     0
 73
     0
 74
     5
  7
monochrome.ctb
 75
    16
147
1.0
148
0.0
149
0.0
100
AcDbLayout
  1
Layout2
 70
     1
 71
     2
 10
0.0
 20
0.0
 11
12.0
 21
9.0
 12
0.0
 22
0.0
 32
0.0
 14
0.0
 24
0.0
 34
0.0
 15
0.0
 25
0.0
 35
0.0
146
0.0
 13
0.0
 23
0.0
 33
0.0
 16
1.0
 26
0.0
 36
0.0
 17
0.0
 27
1.0
 37
0.0
 76
     0
330
689
  0
LAYOUT
  5
681
102
{ACAD_XDICTIONARY
360
1150
102
}
102
{ACAD_REACTORS
330
682
102
}
330
682
100
AcDbPlotSettings
  1

  2
EPSON LP-9400
  4
A4
  6

 40
5.873749732971191
 41
5.873747825622558
 42
5.873748779296875
 43
5.873748779296875
 44
209.9733276367187
 45
297.0106506347656
 46
2.339999999999999
 47
0.0
 48
0.0
 49
0.0
140
0.0
141
0.0
142
1.0
143
9.816891609963194
 70
 11956
 72
     1
 73
     1
 74
     1
  7
monochrome.ctb
 75
     0
147
0.1018652379725877
148
1264.94917075748
149
959.6633564695521
100
AcDbLayout
  1
Model
 70
     1
 71
     0
 10
0.0
 20
0.0
 11
12.0
 21
9.0
 12
0.0
 22
0.0
 32
0.0
 14
0.0
 24
0.0
 34
0.0
 15
0.0
 25
0.0
 35
0.0
146
0.0
 13
0.0
 23
0.0
 33
0.0
 16
1.0
 26
0.0
 36
0.0
 17
0.0
 27
1.0
 37
0.0
 76
     0
330
2
331
DA2
  0
MATERIAL
  5
DAD
102
{ACAD_XDICTIONARY
360
DAE
102
}
102
{ACAD_REACTORS
330
DA4
102
}
330
DA4
100
AcDbMaterial
  1
ByBlock
 72
     0
 43
0.0008202099737533
 43
0.0
 43
0.0
 43
0.0
 43
0.0
 43
0.0008202099737533
 43
0.0
 43
0.0
 43
0.0
 43
0.0
 43
1.0
 43
0.0
 43
0.0
 43
0.0
 43
0.0
 43
1.0
 77
     0
 47
0.0008202099737533
 47
0.0
 47
0.0
 47
0.0
 47
0.0
 47
0.0008202099737533
 47
0.0
 47
0.0
 47
0.0
 47
0.0
 47
1.0
 47
0.0
 47
0.0
 47
0.0
 47
0.0
 47
1.0
171
     0
 49
0.0008202099737533
 49
0.0
 49
0.0
 49
0.0
 49
0.0
 49
0.0008202099737533
 49
0.0
 49
0.0
 49
0.0
 49
0.0
 49
1.0
 49
0.0
 49
0.0
 49
0.0
 49
0.0
 49
1.0
175
     0
142
0.0008202099737533
142
0.0
142
0.0
142
0.0
142
0.0
142
0.0008202099737533
142
0.0
142
0.0
142
0.0
142
0.0
142
1.0
142
0.0
142
0.0
142
0.0
142
0.0
142
1.0
179
     0
144
0.0008202099737533
144
0.0
144
0.0
144
0.0
144
0.0
144
0.0008202099737533
144
0.0
144
0.0
144
0.0
144
0.0
144
1.0
144
0.0
144
0.0
144
0.0
144
0.0
144
1.0
147
0.0008202099737533
147
0.0
147
0.0
147
0.0
147
0.0
147
0.0008202099737533
147
0.0
147
0.0
147
0.0
147
0.0
147
1.0
147
0.0
147
0.0
147
0.0
147
0.0
147
1.0
  0
MATERIAL
  5
DA5
102
{ACAD_XDICTIONARY
360
DA6
102
}
102
{ACAD_REACTORS
330
DA4
102
}
330
DA4
100
AcDbMaterial
  1
ByLayer
 72
     0
 43
0.0008202099737533
 43
0.0
 43
0.0
 43
0.0
 43
0.0
 43
0.0008202099737533
 43
0.0
 43
0.0
 43
0.0
 43
0.0
 43
1.0
 43
0.0
 43
0.0
 43
0.0
 43
0.0
 43
1.0
 77
     0
 47
0.0008202099737533
 47
0.0
 47
0.0
 47
0.0
 47
0.0
 47
0.0008202099737533
 47
0.0
 47
0.0
 47
0.0
 47
0.0
 47
1.0
 47
0.0
 47
0.0
 47
0.0
 47
0.0
 47
1.0
171
     0
 49
0.0008202099737533
 49
0.0
 49
0.0
 49
0.0
 49
0.0
 49
0.0008202099737533
 49
0.0
 49
0.0
 49
0.0
 49
0.0
 49
1.0
 49
0.0
 49
0.0
 49
0.0
 49
0.0
 49
1.0
175
     0
142
0.0008202099737533
142
0.0
142
0.0
142
0.0
142
0.0
142
0.0008202099737533
142
0.0
142
0.0
142
0.0
142
0.0
142
1.0
142
0.0
142
0.0
142
0.0
142
0.0
142
1.0
179
     0
144
0.0008202099737533
144
0.0
144
0.0
144
0.0
144
0.0
144
0.0008202099737533
144
0.0
144
0.0
144
0.0
144
0.0
144
1.0
144
0.0
144
0.0
144
0.0
144
0.0
144
1.0
147
0.0008202099737533
147
0.0
147
0.0
147
0.0
147
0.0
147
0.0008202099737533
147
0.0
147
0.0
147
0.0
147
0.0
147
1.0
147
0.0
147
0.0
147
0.0
147
0.0
147
1.0
  0
MATERIAL
  5
DB5
102
{ACAD_XDICTIONARY
360
DB6
102
}
102
{ACAD_REACTORS
330
DA4
102
}
330
DA4
100
AcDbMaterial
  1
Global
 72
     0
 43
0.0008202099737533
 43
0.0
 43
0.0
 43
0.0
 43
0.0
 43
0.0008202099737533
 43
0.0
 43
0.0
 43
0.0
 43
0.0
 43
1.0
 43
0.0
 43
0.0
 43
0.0
 43
0.0
 43
1.0
 77
     0
 47
0.0008202099737533
 47
0.0
 47
0.0
 47
0.0
 47
0.0
 47
0.0008202099737533
 47
0.0
 47
0.0
 47
0.0
 47
0.0
 47
1.0
 47
0.0
 47
0.0
 47
0.0
 47
0.0
 47
1.0
171
     0
 49
0.0008202099737533
 49
0.0
 49
0.0
 49
0.0
 49
0.0
 49
0.0008202099737533
 49
0.0
 49
0.0
 49
0.0
 49
0.0
 49
1.0
 49
0.0
 49
0.0
 49
0.0
 49
0.0
 49
1.0
175
     0
142
0.0008202099737533
142
0.0
142
0.0
142
0.0
142
0.0
142
0.0008202099737533
142
0.0
142
0.0
142
0.0
142
0.0
142
1.0
142
0.0
142
0.0
142
0.0
142
0.0
142
1.0
179
     0
144
0.0008202099737533
144
0.0
144
0.0
144
0.0
144
0.0
144
0.0008202099737533
144
0.0
144
0.0
144
0.0
144
0.0
144
1.0
144
0.0
144
0.0
144
0.0
144
0.0
144
1.0
147
0.0008202099737533
147
0.0
147
0.0
147
0.0
147
0.0
147
0.0008202099737533
147
0.0
147
0.0
147
0.0
147
0.0
147
1.0
147
0.0
147
0.0
147
0.0
147
0.0
147
1.0
  0
MLEADERSTYLE
  5
DEC
102
{ACAD_XDICTIONARY
360
118A
102
}
102
{ACAD_REACTORS
330
DEB
102
}
330
DEB
100
AcDbMLeaderStyle
170
     2
171
     1
172
     0
 90
        2
 40
0.0
 41
0.0
173
     1
 91
-1056964608
340
693
 92
       -2
290
     1
 42
2.0
291
     1
 43
0.36
  3
Standard
 44
4.0
300

342
9
174
     1
178
     6
175
     1
176
     0
 93
-1056964608
 45
4.0
292
     0
297
     0
 46
4.0
 94
-1056964608
 47
1.0
 49
1.0
140
1.0
293
     1
141
0.0
294
     1
177
     0
142
1.0
295
     0
296
     0
143
0.125
1001
ACAD_MLEADERVER
1070
     2
  0
MLINESTYLE
  5
69F
102
{ACAD_REACTORS
330
69D
102
}
330
69D
100
AcDbMlineStyle
  2
STANDARD
 70
     0
  3

 62
   256
 51
90.0
 52
90.0
 71
     2
 49
0.5
 62
   256
  6
BYLAYER
 49
-0.5
 62
   256
  6
BYLAYER
  0
ACDBPLACEHOLDER
  5
5
102
{ACAD_REACTORS
330
6
102
}
330
6
  0
SCALE
  5
DDA
102
{ACAD_REACTORS
330
DD9
102
}
330
DD9
100
AcDbScale
 70
     0
300
1:1
140
1.0
141
1.0
290
     1
  0
SCALE
  5
DDB
102
{ACAD_REACTORS
330
DD9
102
}
330
DD9
100
AcDbScale
 70
     0
300
1:2
140
1.0
141
2.0
290
     0
  0
SCALE
  5
DDC
102
{ACAD_REACTORS
330
DD9
102
}
330
DD9
100
AcDbScale
 70
     0
300
1:4
140
1.0
141
4.0
290
     0
  0
SCALE
  5
DDD
102
{ACAD_REACTORS
330
DD9
102
}
330
DD9
100
AcDbScale
 70
     0
300
1:5
140
1.0
141
5.0
290
     0
  0
SCALE
  5
DDE
102
{ACAD_REACTORS
330
DD9
102
}
330
DD9
100
AcDbScale
 70
     0
300
1:8
140
1.0
141
8.0
290
     0
  0
SCALE
  5
DDF
102
{ACAD_REACTORS
330
DD9
102
}
330
DD9
100
AcDbScale
 70
     0
300
1:10
140
1.0
141
10.0
290
     0
  0
SCALE
  5
DE0
102
{ACAD_REACTORS
330
DD9
102
}
330
DD9
100
AcDbScale
 70
     0
300
1:16
140
1.0
141
16.0
290
     0
  0
SCALE
  5
DE1
102
{ACAD_REACTORS
330
DD9
102
}
330
DD9
100
AcDbScale
 70
     0
300
1:20
140
1.0
141
20.0
290
     0
  0
SCALE
  5
DE2
102
{ACAD_REACTORS
330
DD9
102
}
330
DD9
100
AcDbScale
 70
     0
300
1:30
140
1.0
141
30.0
290
     0
  0
SCALE
  5
DE3
102
{ACAD_REACTORS
330
DD9
102
}
330
DD9
100
AcDbScale
 70
     0
300
1:40
140
1.0
141
40.0
290
     0
  0
SCALE
  5
DE4
102
{ACAD_REACTORS
330
DD9
102
}
330
DD9
100
AcDbScale
 70
     0
300
1:50
140
1.0
141
50.0
290
     0
  0
SCALE
  5
DE5
102
{ACAD_REACTORS
330
DD9
102
}
330
DD9
100
AcDbScale
 70
     0
300
1:100
140
1.0
141
100.0
290
     0
  0
SCALE
  5
DE6
102
{ACAD_REACTORS
330
DD9
102
}
330
DD9
100
AcDbScale
 70
     0
300
2:1
140
2.0
141
1.0
290
     0
  0
SCALE
  5
DE7
102
{ACAD_REACTORS
330
DD9
102
}
330
DD9
100
AcDbScale
 70
     0
300
4:1
140
4.0
141
1.0
290
     0
  0
SCALE
  5
DE8
102
{ACAD_REACTORS
330
DD9
102
}
330
DD9
100
AcDbScale
 70
     0
300
8:1
140
8.0
141
1.0
290
     0
  0
SCALE
  5
DE9
102
{ACAD_REACTORS
330
DD9
102
}
330
DD9
100
AcDbScale
 70
     0
300
10:1
140
10.0
141
1.0
290
     0
  0
SCALE
  5
DEA
102
{ACAD_REACTORS
330
DD9
102
}
330
DD9
100
AcDbScale
 70
     0
300
100:1
140
100.0
141
1.0
290
     0
  0
ACDBSECTIONVIEWSTYLE
  5
F4E
102
{ACAD_XDICTIONARY
360
1190
102
}
102
{ACAD_REACTORS
330
DED
102
}
330
DED
100
AcDbModelDocViewStyle
 70
     0
  3
Imperial24
290
     0
100
AcDbSectionViewStyle
 70
     0
 71
     0
 90
       78
 71
     1
340
9
 40
0.24
340
0
340
0
 40
0.24
300
I, O, Q, S, X, Z
 40
0.48
 90
        3
 40
0.18
 90
        1
 71
     2
340
8
 90
       25
340
8
 90
       50
 40
0.24
 40
0.0
 40
0.24
 71
     3
340
9
 40
0.24
 90
        1
 40
0.75
 90
        1
300
%<\AcVar ViewType \f "%tc1">% %<\AcVar ViewSectionStartId>%-%<\AcVar ViewSectionEndId>%\PSCALE %<\AcVar ViewScale \f "%sn">%
 71
     4
300
ANSI31
 40
1.0
 90
        0
290
     0
290
     0
 90
        6
 40
0.0
 40
1.570796326794896
 40
0.2617993877991494
 40
1.308996938995747
 40
-0.2617993877991494
 40
1.832595714594046
  0
ACDBSECTIONVIEWSTYLE
  5
DEE
102
{ACAD_XDICTIONARY
360
118C
102
}
102
{ACAD_REACTORS
330
DED
102
}
330
DED
100
AcDbModelDocViewStyle
 70
     0
  3
Metric50
290
     0
100
AcDbSectionViewStyle
 70
     0
 71
     0
 90
      102
 71
     1
340
9
 40
5.0
340
0
340
0
 40
5.0
300
I, O, Q, S, X, Z
 40
10.0
 90
        0
 40
2.5
 90
        0
 71
     2
340
8
 90
       25
340
8
 90
       50
 40
5.0
 40
2.5
 40
5.0
 71
     3
340
9
 40
5.0
 90
        0
 40
15.0
 90
        1
300
%<\AcVar ViewSectionStartId>%-%<\AcVar ViewSectionEndId>% (%<\AcVar ViewScale \f "%sn">%)
 71
     4
300
ANSI31
 40
1.0
 90
        0
290
     0
290
     0
 90
        6
 40
0.0
 40
1.570796326794896
 40
0.2617993877991494
 40
1.308996938995747
 40
-0.2617993877991494
 40
1.832595714594046
  0
TABLESTYLE
  5
DD8
102
{ACAD_XDICTIONARY
360
E0A
102
}
102
{ACAD_REACTORS
330
DD7
102
}
330
DD7
100
AcDbTableStyle
  3
Standard
 70
     0
 71
     0
 40
1.5
 41
1.5
280
     0
281
     0
  7
Standard
140
4.5
170
     2
 62
     0
 63
     7
283
     0
274
    -2
284
     1
 64
     0
275
    -2
285
     1
 65
     0
276
    -2
286
     1
 66
     0
277
    -2
287
     1
 67
     0
278
    -2
288
     1
 68
     0
279
    -2
289
     1
 69
     0
  7
Standard
140
6.0
170
     5
 62
     0
 63
     7
283
     0
274
    -2
284
     1
 64
     0
275
    -2
285
     1
 65
     0
276
    -2
286
     1
 66
     0
277
    -2
287
     1
 67
     0
278
    -2
288
     1
 68
     0
279
    -2
289
     1
 69
     0
  7
Standard
140
4.5
170
     5
 62
     0
 63
     7
283
     0
274
    -2
284
     1
 64
     0
275
    -2
285
     1
 65
     0
276
    -2
286
     1
 66
     0
277
    -2
287
     1
 67
     0
278
    -2
288
     1
 68
     0
279
    -2
289
     1
 69
     0
  0
VISUALSTYLE
  5
DC3
102
{ACAD_XDICTIONARY
360
1163
102
}
102
{ACAD_REACTORS
330
DBD
102
}
330
DBD
100
AcDbVisualStyle
  2
2dWireframe
 70
     4
 71
     0
 72
     2
 73
     0
 90
        0
 40
-0.6
 41
-30.0
 62
     5
 63
     7
 74
     1
 91
        4
 64
     7
 65
   257
 75
     1
175
     1
 42
1.0
 92
        0
 66
   257
 43
1.0
 76
     1
 77
     6
 78
     2
 67
     7
 79
     5
170
     0
171
     0
290
     0
174
     0
 93
        1
 44
0.0
173
     0
291
     0
 45
0.0
1001
ACAD
1000
AcDbSavedByObjectVersion
1070
     0
  0
VISUALSTYLE
  5
DC2
102
{ACAD_XDICTIONARY
360
1161
102
}
102
{ACAD_REACTORS
330
DBD
102
}
330
DBD
100
AcDbVisualStyle
  2
Basic
 70
     7
 71
     1
 72
     0
 73
     1
 90
        0
 40
-0.6
 41
-30.0
 62
     5
 63
     7
 74
     0
 91
        4
 64
     7
 65
   257
 75
     1
175
     1
 42
1.0
 92
        8
 66
     7
 43
1.0
 76
     1
 77
     6
 78
     2
 67
     7
 79
     5
170
     0
171
     0
290
     0
174
     0
 93
        1
 44
0.0
173
     0
291
     1
 45
0.0
1001
ACAD
1000
AcDbSavedByObjectVersion
1070
     0
  0
VISUALSTYLE
  5
DC9
102
{ACAD_XDICTIONARY
360
116F
102
}
102
{ACAD_REACTORS
330
DBD
102
}
330
DBD
100
AcDbVisualStyle
  2
Brighten
 70
    12
 71
     2
 72
     2
 73
     0
 90
        0
 40
-0.6
 41
-30.0
 62
     5
 63
     7
 74
     1
 91
        4
 64
     7
 65
   257
 75
     1
175
     1
 42
1.0
 92
        8
 66
     7
 43
1.0
 76
     1
 77
     6
 78
     2
 67
     7
 79
     5
170
     0
171
     0
290
     0
174
     0
 93
        1
 44
50.0
173
     0
291
     1
 45
0.0
1001
ACAD
1000
AcDbSavedByObjectVersion
1070
     0
  0
VISUALSTYLE
  5
DCD
102
{ACAD_XDICTIONARY
360
1177
102
}
102
{ACAD_REACTORS
330
DBD
102
}
330
DBD
100
AcDbVisualStyle
  2
ColorChange
 70
    16
 71
     2
 72
     2
 73
     3
 90
        0
 40
-0.6
 41
-30.0
 62
     5
 63
     8
 74
     1
 91
        4
 64
     7
 65
   257
 75
     1
175
     1
 42
1.0
 92
        8
 66
     8
 43
1.0
 76
     1
 77
     6
 78
     2
 67
     7
 79
     5
170
     0
171
     0
290
     0
174
     0
 93
        1
 44
0.0
173
     0
291
     1
 45
0.0
1001
ACAD
1000
AcDbSavedByObjectVersion
1070
     0
  0
VISUALSTYLE
  5
DC6
102
{ACAD_XDICTIONARY
360
1169
102
}
102
{ACAD_REACTORS
330
DBD
102
}
330
DBD
100
AcDbVisualStyle
  2
Conceptual
 70
     9
 71
     3
 72
     2
 73
     0
 90
        0
 40
-0.6
 41
-30.0
 62
     5
 63
     7
 74
     2
 91
        2
 64
     7
 65
   257
 75
     1
175
     1
 42
179.0
 92
        8
 66
     7
 43
1.0
 76
     1
 77
     6
 78
     2
 67
     7
 79
     3
170
     0
171
     0
290
     0
174
     0
 93
        1
 44
0.0
173
     0
291
     0
 45
0.0
1001
ACAD
1000
AcDbSavedByObjectVersion
1070
     0
  0
VISUALSTYLE
  5
DC8
102
{ACAD_XDICTIONARY
360
116D
102
}
102
{ACAD_REACTORS
330
DBD
102
}
330
DBD
100
AcDbVisualStyle
  2
Dim
 70
    11
 71
     2
 72
     2
 73
     0
 90
        0
 40
-0.6
 41
-30.0
 62
     5
 63
     7
 74
     1
 91
        4
 64
     7
 65
   257
 75
     1
175
     1
 42
1.0
 92
        8
 66
     7
 43
1.0
 76
     1
 77
     6
 78
     2
 67
     7
 79
     5
170
     0
171
     0
290
     0
174
     0
 93
        1
 44
-50.0
173
     0
291
     1
 45
0.0
1001
ACAD
1000
AcDbSavedByObjectVersion
1070
     0
  0
VISUALSTYLE
  5
DD5
102
{ACAD_XDICTIONARY
360
1187
102
}
102
{ACAD_REACTORS
330
DBD
102
}
330
DBD
100
AcDbVisualStyle
  2
EdgeColorOff
 70
    22
 71
     2
 72
     2
 73
     0
 90
        0
 40
-0.6
 41
-30.0
 62
     5
 63
     7
 74
     1
 91
        4
 64
     7
 65
   257
 75
     1
175
     1
 42
1.0
 92
        8
 66
     7
 43
1.0
 76
     1
 77
     6
 78
     2
 67
     7
 79
     5
170
     0
171
     0
290
     0
174
     0
 93
        1
 44
0.0
173
     0
291
     1
 45
0.0
1001
ACAD
1000
AcDbSavedByObjectVersion
1070
     0
  0
VISUALSTYLE
  5
DCC
102
{ACAD_XDICTIONARY
360
1175
102
}
102
{ACAD_REACTORS
330
DBD
102
}
330
DBD
100
AcDbVisualStyle
  2
Facepattern
 70
    15
 71
     2
 72
     2
 73
     0
 90
        0
 40
-0.6
 41
-30.0
 62
     5
 63
     7
 74
     1
 91
        4
 64
     7
 65
   257
 75
     1
175
     1
 42
1.0
 92
        8
 66
     7
 43
1.0
 76
     1
 77
     6
 78
     2
 67
     7
 79
     5
170
     0
171
     0
290
     0
174
     0
 93
        1
 44
0.0
173
     0
291
     1
 45
0.0
1001
ACAD
1000
AcDbSavedByObjectVersion
1070
     0
  0
VISUALSTYLE
  5
DBE
102
{ACAD_XDICTIONARY
360
1159
102
}
102
{ACAD_REACTORS
330
DBD
102
}
330
DBD
100
AcDbVisualStyle
  2
Flat
 70
     0
 71
     2
 72
     1
 73
     1
 90
        2
 40
-0.6
 41
30.0
 62
     5
 63
     7
 74
     0
 91
        0
 64
     7
 65
   257
 75
     1
175
     1
 42
1.0
 92
        8
 66
     7
 43
1.0
 76
     1
 77
     6
 78
     2
 67
     7
 79
     5
170
     0
171
     0
290
     0
174
     0
 93
       13
 44
0.0
173
     0
291
     1
 45
0.0
1001
ACAD
1000
AcDbSavedByObjectVersion
1070
     0
  0
VISUALSTYLE
  5
DBF
102
{ACAD_XDICTIONARY
360
115B
102
}
102
{ACAD_REACTORS
330
DBD
102
}
330
DBD
100
AcDbVisualStyle
  2
FlatWithEdges
 70
     1
 71
     2
 72
     1
 73
     1
 90
        2
 40
-0.6
 41
30.0
 62
     5
 63
     7
 74
     1
 91
        0
 64
     7
 65
   257
 75
     1
175
     1
 42
1.0
 92
        0
 66
   257
 43
1.0
 76
     1
 77
     6
 78
     2
 67
     7
 79
     5
170
     0
171
     0
290
     0
174
     0
 93
       13
 44
0.0
173
     0
291
     1
 45
0.0
1001
ACAD
1000
AcDbSavedByObjectVersion
1070
     0
  0
VISUALSTYLE
  5
DC0
102
{ACAD_XDICTIONARY
360
115D
102
}
102
{ACAD_REACTORS
330
DBD
102
}
330
DBD
100
AcDbVisualStyle
  2
Gouraud
 70
     2
 71
     2
 72
     2
 73
     1
 90
        2
 40
-0.6
 41
30.0
 62
     5
 63
     7
 74
     0
 91
        0
 64
     7
 65
   257
 75
     1
175
     1
 42
1.0
 92
        0
 66
     7
 43
1.0
 76
     1
 77
     6
 78
     2
 67
     7
 79
     5
170
     0
171
     0
290
     0
174
     0
 93
       13
 44
0.0
173
     0
291
     1
 45
0.0
1001
ACAD
1000
AcDbSavedByObjectVersion
1070
     0
  0
VISUALSTYLE
  5
DC1
102
{ACAD_XDICTIONARY
360
115F
102
}
102
{ACAD_REACTORS
330
DBD
102
}
330
DBD
100
AcDbVisualStyle
  2
GouraudWithEdges
 70
     3
 71
     2
 72
     2
 73
     1
 90
        2
 40
-0.6
 41
30.0
 62
     5
 63
     7
 74
     1
 91
        0
 64
     7
 65
   257
 75
     1
175
     1
 42
1.0
 92
        0
 66
   257
 43
1.0
 76
     1
 77
     6
 78
     2
 67
     7
 79
     5
170
     0
171
     0
290
     0
174
     0
 93
       13
 44
0.0
173
     0
291
     1
 45
0.0
1001
ACAD
1000
AcDbSavedByObjectVersion
1070
     0
  0
VISUALSTYLE
  5
DC5
102
{ACAD_XDICTIONARY
360
1167
102
}
102
{ACAD_REACTORS
330
DBD
102
}
330
DBD
100
AcDbVisualStyle
  2
Hidden
 70
     6
 71
     1
 72
     2
 73
     2
 90
        0
 40
-0.6
 41
-30.0
 62
     5
 63
     7
 74
     2
 91
        2
 64
     7
 65
   257
 75
     2
175
     1
 42
40.0
 92
        0
 66
   257
 43
1.0
 76
     1
 77
     6
 78
     2
 67
     7
 79
     3
170
     0
171
     0
290
     0
174
     0
 93
        1
 44
0.0
173
     0
291
     0
 45
0.0
1001
ACAD
1000
AcDbSavedByObjectVersion
1070
     0
  0
VISUALSTYLE
  5
DD3
102
{ACAD_XDICTIONARY
360
1183
102
}
102
{ACAD_REACTORS
330
DBD
102
}
330
DBD
100
AcDbVisualStyle
  2
JitterOff
 70
    20
 71
     2
 72
     2
 73
     0
 90
        0
 40
-0.6
 41
-30.0
 62
     5
 63
     7
 74
     1
 91
        4
 64
     7
 65
   257
 75
     1
175
     1
 42
1.0
 92
       10
 66
     7
 43
1.0
 76
     1
 77
     6
 78
     2
 67
     7
 79
     5
170
     0
171
     0
290
     0
174
     0
 93
        1
 44
0.0
173
     0
291
     1
 45
0.0
1001
ACAD
1000
AcDbSavedByObjectVersion
1070
     0
  0
VISUALSTYLE
  5
DCB
102
{ACAD_XDICTIONARY
360
1173
102
}
102
{ACAD_REACTORS
330
DBD
102
}
330
DBD
100
AcDbVisualStyle
  2
Linepattern
 70
    14
 71
     2
 72
     2
 73
     0
 90
        0
 40
-0.6
 41
-30.0
 62
     5
 63
     7
 74
     1
 91
        4
 64
     7
 65
   257
 75
     7
175
     7
 42
1.0
 92
        8
 66
     7
 43
1.0
 76
     1
 77
     6
 78
     2
 67
     7
 79
     5
170
     0
171
     0
290
     0
174
     0
 93
        1
 44
0.0
173
     0
291
     1
 45
0.0
1001
ACAD
1000
AcDbSavedByObjectVersion
1070
     0
  0
VISUALSTYLE
  5
DD4
102
{ACAD_XDICTIONARY
360
1185
102
}
102
{ACAD_REACTORS
330
DBD
102
}
330
DBD
100
AcDbVisualStyle
  2
OverhangOff
 70
    21
 71
     2
 72
     2
 73
     0
 90
        0
 40
-0.6
 41
-30.0
 62
     5
 63
     7
 74
     1
 91
        4
 64
     7
 65
   257
 75
     1
175
     1
 42
1.0
 92
        9
 66
     7
 43
1.0
 76
     1
 77
     6
 78
     2
 67
     7
 79
     5
170
     0
171
     0
290
     0
174
     0
 93
        1
 44
0.0
173
     0
291
     1
 45
0.0
1001
ACAD
1000
AcDbSavedByObjectVersion
1070
     0
  0
VISUALSTYLE
  5
DC7
102
{ACAD_XDICTIONARY
360
116B
102
}
102
{ACAD_REACTORS
330
DBD
102
}
330
DBD
100
AcDbVisualStyle
  2
Realistic
 70
     8
 71
     2
 72
     2
 73
     0
 90
        2
 40
-0.6
 41
30.0
 62
     5
 63
     7
 74
     0
 91
        0
 64
     7
 65
   257
 75
     1
175
     1
 42
1.0
 92
        8
 66
   257
 43
1.0
 76
     1
 77
     6
 78
     2
 67
     7
 79
     3
170
     0
171
     0
290
     0
174
     0
 93
       13
 44
0.0
173
     0
291
     0
 45
0.0
1001
ACAD
1000
AcDbSavedByObjectVersion
1070
     0
  0
VISUALSTYLE
  5
DD2
102
{ACAD_XDICTIONARY
360
1181
102
}
102
{ACAD_REACTORS
330
DBD
102
}
330
DBD
100
AcDbVisualStyle
  2
Shaded
 70
    27
 71
     2
 72
     2
 73
     1
 90
        2
 40
-0.6
 41
30.0
 62
     5
 63
     7
 74
     0
 91
        4
 64
     7
 65
   257
 75
     1
175
     1
 42
1.0
 92
        8
 66
   257
 43
1.0
 76
     1
 77
     6
 78
     2
 67
     8
 79
     3
170
     0
171
     0
290
     0
174
     0
 93
        5
 44
0.0
173
     0
291
     0
 45
0.0
1001
ACAD
1000
AcDbSavedByObjectVersion
1070
     0
  0
VISUALSTYLE
  5
DD1
102
{ACAD_XDICTIONARY
360
117F
102
}
102
{ACAD_REACTORS
330
DBD
102
}
330
DBD
100
AcDbVisualStyle
  2
Shaded with edges
 70
    26
 71
     2
 72
     2
 73
     1
 90
        2
 40
-0.6
 41
30.0
 62
     5
 63
     7
 74
     1
 91
       10
 64
     7
 65
   257
 75
     2
175
     1
 42
1.0
 92
        8
 66
   257
 43
1.0
 76
     1
 77
     6
 78
     2
 67
     7
 79
     3
170
     0
171
     0
290
     0
174
     0
 93
        5
 44
0.0
173
     0
291
     0
 45
0.0
1001
ACAD
1000
AcDbSavedByObjectVersion
1070
     0
  0
VISUALSTYLE
  5
DCE
102
{ACAD_XDICTIONARY
360
1179
102
}
102
{ACAD_REACTORS
330
DBD
102
}
330
DBD
100
AcDbVisualStyle
  2
Shades of Gray
 70
    23
 71
     2
 72
     2
 73
     3
 90
        0
 40
-0.6
 41
-30.0
 62
     5
 63
     7
 74
     2
 91
        2
 64
     7
 65
     7
 75
     1
175
     1
 42
40.0
 92
        8
 66
     7
 43
1.0
 76
     1
 77
     6
 78
     2
 67
     7
 79
     3
170
     0
171
     0
290
     0
174
     0
 93
        1
 44
0.0
173
     0
291
     0
 45
0.0
1001
ACAD
1000
AcDbSavedByObjectVersion
1070
     0
  0
VISUALSTYLE
  5
DCF
102
{ACAD_XDICTIONARY
360
117B
102
}
102
{ACAD_REACTORS
330
DBD
102
}
330
DBD
100
AcDbVisualStyle
  2
Sketchy
 70
    24
 71
     1
 72
     2
 73
     2
 90
        0
 40
-0.6
 41
-30.0
 62
     5
 63
     7
 74
     2
 91
        2
 64
     7
 65
     7
 75
     1
175
     1
 42
40.0
 92
       11
 66
     7
 43
1.0
 76
     1
 77
     6
 78
     2
 67
     7
 79
     6
170
     0
171
     0
290
     0
174
     0
 93
        1
 44
0.0
173
     0
291
     0
 45
0.0
1001
ACAD
1000
AcDbSavedByObjectVersion
1070
     0
  0
VISUALSTYLE
  5
DCA
102
{ACAD_XDICTIONARY
360
1171
102
}
102
{ACAD_REACTORS
330
DBD
102
}
330
DBD
100
AcDbVisualStyle
  2
Thicken
 70
    13
 71
     2
 72
     2
 73
     0
 90
        0
 40
-0.6
 41
-30.0
 62
     5
 63
     7
 74
     1
 91
        4
 64
     7
 65
   257
 75
     1
175
     1
 42
1.0
 92
       12
 66
     7
 43
1.0
 76
     1
 77
     6
 78
     2
 67
     7
 79
     5
170
     0
171
     0
290
     0
174
     0
 93
        1
 44
0.0
173
     0
291
     1
 45
0.0
1001
ACAD
1000
AcDbSavedByObjectVersion
1070
     0
  0
VISUALSTYLE
  5
DC4
102
{ACAD_XDICTIONARY
360
1165
102
}
102
{ACAD_REACTORS
330
DBD
102
}
330
DBD
100
AcDbVisualStyle
  2
Wireframe
 70
     5
 71
     0
 72
     2
 73
     0
 90
        0
 40
-0.6
 41
-30.0
 62
     5
 63
     7
 74
     1
 91
        4
 64
     7
 65
   257
 75
     1
175
     1
 42
1.0
 92
        0
 66
   257
 43
1.0
 76
     1
 77
     6
 78
     2
 67
     7
 79
     3
170
     0
171
     0
290
     0
174
     0
 93
        1
 44
0.0
173
     0
291
     0
 45
0.0
1001
ACAD
1000
AcDbSavedByObjectVersion
1070
     0
  0
VISUALSTYLE
  5
DD0
102
{ACAD_XDICTIONARY
360
117D
102
}
102
{ACAD_REACTORS
330
DBD
102
}
330
DBD
100
AcDbVisualStyle
  2
X-Ray
 70
    25
 71
     2
 72
     2
 73
     1
 90
        1
 40
0.5
 41
-30.0
 62
     5
 63
     7
 74
     1
 91
        0
 64
     7
 65
   257
 75
     1
175
     1
 42
1.0
 92
        8
 66
     7
 43
1.0
 76
     1
 77
     6
 78
     2
 67
     7
 79
     3
170
     0
171
     0
290
     0
174
     0
 93
       13
 44
0.0
173
     0
291
     0
 45
0.0
1001
ACAD
1000
AcDbSavedByObjectVersion
1070
     0
  0
DICTIONARYVAR
  5
E56
102
{ACAD_REACTORS
330
E51
102
}
330
E51
100
DictionaryVariables
280
     0
  1
1:1
  0
DICTIONARYVAR
  5
E53
102
{ACAD_REACTORS
330
E51
102
}
330
E51
100
DictionaryVariables
280
     0
  1
STANDARD
  0
DICTIONARYVAR
  5
E52
102
{ACAD_REACTORS
330
E51
102
}
330
E51
100
DictionaryVariables
280
     0
  1
STANDARD
  0
DICTIONARYVAR
  5
E54
102
{ACAD_REACTORS
330
E51
102
}
330
E51
100
DictionaryVariables
280
     0
  1
Metric50
  0
DICTIONARYVAR
  5
E55
102
{ACAD_REACTORS
330
E51
102
}
330
E51
100
DictionaryVariables
280
     0
  1
Metric50
  0
DICTIONARYVAR
  5
E59
102
{ACAD_REACTORS
330
E51
102
}
330
E51
100
DictionaryVariables
280
     0
  1
1
  0
DICTIONARYVAR
  5
E58
102
{ACAD_REACTORS
330
E51
102
}
330
E51
100
DictionaryVariables
280
     0
  1
0
  0
DICTIONARYVAR
  5
E57
102
{ACAD_REACTORS
330
E51
102
}
330
E51
100
DictionaryVariables
280
     0
  1
127
  0
DICTIONARYVAR
  5
114C
102
{ACAD_REACTORS
330
E51
102
}
330
E51
100
DictionaryVariables
280
     0
  1
2
  0
XRECORD
  5
1042
102
{ACAD_XDICTIONARY
360
1043
102
}
102
{ACAD_REACTORS
330
E69
102
}
330
E69
100
AcDbXrecord
280
     1
 91
      535
301

290
     0
302
エンボス
330
F6C
 90
        9
 62
   112
370
    13
331
F9
  1
色_112
440
        0
330
D92
 90
        9
 62
    51
370
    13
331
8
  1
色_51
440
        0
330
D91
 90
        9
 62
   112
370
    13
331
8
  1
色_112
440
        0
330
B1C
 90
        9
 62
     3
370
     9
331
8
  1
色_3
440
        0
330
11E
 90
        1
 62
     7
370
    -3
331
8
  1
色_7
440
        0
330
11
 90
        9
 62
     7
370
    -3
331
8
  1
色_7
440
        0
330
67
 90
        8
 62
     4
370
     5
331
8
  1
色_4
440
        0
330
2E
 90
        9
 62
    31
370
     9
331
8
  1
色_31
440
        0
330
4
 90
        9
 62
     2
370
     9
331
8
  1
色_2
440
        0
330
6A
 90
        8
 62
     7
370
    13
331
8
  1
色_7
440
        0
330
64
 90
        9
 62
     7
370
    -3
331
8
  1
色_7
440
        0
  0
ACDBASSOCNETWORK
  5
105F
102
{ACAD_REACTORS
330
105E
102
}
330
105E
100
AcDbAssocAction
 90
        1
 90
        1
330
1061
360
0
 90
        1
 90
        0
 90
        0
100
AcDbAssocNetwork
 90
        0
 90
        2
 90
        2
360
1062
360
10CE
 90
        2
330
1062
330
10CE
  0
XRECORD
  5
1196
102
{ACAD_REACTORS
330
1195
102
}
330
1195
100
AcDbXrecord
280
     1
1070
     0
1070
     1
1070
     1
  0
XRECORD
  5
1199
102
{ACAD_REACTORS
330
1198
102
}
330
1198
100
AcDbXrecord
280
     1
1070
     0
1070
     1
1070
     1
  0
DICTIONARY
  5
1192
330
F4F
100
AcDbDictionary
280
     1
281
     1
  3
ACAD_XREC_ROUNDTRIP
360
1193
  0
DICTIONARY
  5
118E
330
DF0
100
AcDbDictionary
280
     1
281
     1
  3
ACAD_XREC_ROUNDTRIP
360
118F
  0
DICTIONARY
  5
1152
330
688
100
AcDbDictionary
280
     1
281
     1
  3
ACAD_XREC_ROUNDTRIP
360
1153
  0
DICTIONARY
  5
1154
330
68E
100
AcDbDictionary
280
     1
281
     1
  3
ACAD_XREC_ROUNDTRIP
360
1155
  0
DICTIONARY
  5
1150
330
681
100
AcDbDictionary
280
     1
281
     1
  3
ACAD_XREC_ROUNDTRIP
360
1151
  0
DICTIONARY
  5
DAE
330
DAD
100
AcDbDictionary
280
     1
281
     1
  3
ACAD_XREC_ROUNDTRIP
360
1157
  3
BUMPTILE
360
DB0
  3
DIFFUSETILE
360
DAF
  3
OPACITYTILE
360
DB3
  3
REFLECTIONTILE
360
DB2
  3
REFRACTIONTILE
360
DB4
  3
SPECULARTILE
360
DB1
  0
DICTIONARY
  5
DA6
330
DA5
100
AcDbDictionary
280
     1
281
     1
  3
ACAD_XREC_ROUNDTRIP
360
1156
  3
BUMPTILE
360
DA8
  3
DIFFUSETILE
360
DA7
  3
OPACITYTILE
360
DAB
  3
REFLECTIONTILE
360
DAA
  3
REFRACTIONTILE
360
DAC
  3
SPECULARTILE
360
DA9
  0
DICTIONARY
  5
DB6
330
DB5
100
AcDbDictionary
280
     1
281
     1
  3
ACAD_XREC_ROUNDTRIP
360
1158
  3
BUMPTILE
360
DB8
  3
DIFFUSETILE
360
DB7
  3
OPACITYTILE
360
DBB
  3
REFLECTIONTILE
360
DBA
  3
REFRACTIONTILE
360
DBC
  3
SPECULARTILE
360
DB9
  0
DICTIONARY
  5
118A
330
DEC
100
AcDbDictionary
280
     1
281
     1
  3
ACAD_XREC_ROUNDTRIP
360
118B
  0
DICTIONARY
  5
1190
330
F4E
100
AcDbDictionary
280
     1
281
     1
  3
ACAD_XREC_ROUNDTRIP
360
1191
  0
DICTIONARY
  5
118C
330
DEE
100
AcDbDictionary
280
     1
281
     1
  3
ACAD_XREC_ROUNDTRIP
360
118D
  0
DICTIONARY
  5
E0A
330
DD8
100
AcDbDictionary
280
     1
281
     1
  3
ACAD_ROUNDTRIP_2008_TABLESTYLE_CELLSTYLEMAP
360
114D
  3
ACAD_XREC_ROUNDTRIP
360
1189
  0
DICTIONARY
  5
1163
330
DC3
100
AcDbDictionary
280
     1
281
     1
  3
ACAD_XREC_ROUNDTRIP
360
1164
  0
DICTIONARY
  5
1161
330
DC2
100
AcDbDictionary
280
     1
281
     1
  3
ACAD_XREC_ROUNDTRIP
360
1162
  0
DICTIONARY
  5
116F
330
DC9
100
AcDbDictionary
280
     1
281
     1
  3
ACAD_XREC_ROUNDTRIP
360
1170
  0
DICTIONARY
  5
1177
330
DCD
100
AcDbDictionary
280
     1
281
     1
  3
ACAD_XREC_ROUNDTRIP
360
1178
  0
DICTIONARY
  5
1169
330
DC6
100
AcDbDictionary
280
     1
281
     1
  3
ACAD_XREC_ROUNDTRIP
360
116A
  0
DICTIONARY
  5
116D
330
DC8
100
AcDbDictionary
280
     1
281
     1
  3
ACAD_XREC_ROUNDTRIP
360
116E
  0
DICTIONARY
  5
1187
330
DD5
100
AcDbDictionary
280
     1
281
     1
  3
ACAD_XREC_ROUNDTRIP
360
1188
  0
DICTIONARY
  5
1175
330
DCC
100
AcDbDictionary
280
     1
281
     1
  3
ACAD_XREC_ROUNDTRIP
360
1176
  0
DICTIONARY
  5
1159
330
DBE
100
AcDbDictionary
280
     1
281
     1
  3
ACAD_XREC_ROUNDTRIP
360
115A
  0
DICTIONARY
  5
115B
330
DBF
100
AcDbDictionary
280
     1
281
     1
  3
ACAD_XREC_ROUNDTRIP
360
115C
  0
DICTIONARY
  5
115D
330
DC0
100
AcDbDictionary
280
     1
281
     1
  3
ACAD_XREC_ROUNDTRIP
360
115E
  0
DICTIONARY
  5
115F
330
DC1
100
AcDbDictionary
280
     1
281
     1
  3
ACAD_XREC_ROUNDTRIP
360
1160
  0
DICTIONARY
  5
1167
330
DC5
100
AcDbDictionary
280
     1
281
     1
  3
ACAD_XREC_ROUNDTRIP
360
1168
  0
DICTIONARY
  5
1183
330
DD3
100
AcDbDictionary
280
     1
281
     1
  3
ACAD_XREC_ROUNDTRIP
360
1184
  0
DICTIONARY
  5
1173
330
DCB
100
AcDbDictionary
280
     1
281
     1
  3
ACAD_XREC_ROUNDTRIP
360
1174
  0
DICTIONARY
  5
1185
330
DD4
100
AcDbDictionary
280
     1
281
     1
  3
ACAD_XREC_ROUNDTRIP
360
1186
  0
DICTIONARY
  5
116B
330
DC7
100
AcDbDictionary
280
     1
281
     1
  3
ACAD_XREC_ROUNDTRIP
360
116C
  0
DICTIONARY
  5
1181
330
DD2
100
AcDbDictionary
280
     1
281
     1
  3
ACAD_XREC_ROUNDTRIP
360
1182
  0
DICTIONARY
  5
117F
330
DD1
100
AcDbDictionary
280
     1
281
     1
  3
ACAD_XREC_ROUNDTRIP
360
1180
  0
DICTIONARY
  5
1179
330
DCE
100
AcDbDictionary
280
     1
281
     1
  3
ACAD_XREC_ROUNDTRIP
360
117A
  0
DICTIONARY
  5
117B
330
DCF
100
AcDbDictionary
280
     1
281
     1
  3
ACAD_XREC_ROUNDTRIP
360
117C
  0
DICTIONARY
  5
1171
330
DCA
100
AcDbDictionary
280
     1
281
     1
  3
ACAD_XREC_ROUNDTRIP
360
1172
  0
DICTIONARY
  5
1165
330
DC4
100
AcDbDictionary
280
     1
281
     1
  3
ACAD_XREC_ROUNDTRIP
360
1166
  0
DICTIONARY
  5
117D
330
DD0
100
AcDbDictionary
280
     1
281
     1
  3
ACAD_XREC_ROUNDTRIP
360
117E
  0
DICTIONARY
  5
1043
330
1042
100
AcDbDictionary
280
     1
281
     1
  3
AcadLayerStateAnnoScale
360
1044
  0
ACDBASSOCACTION
  5
1062
330
105F
100
AcDbAssocAction
 90
        1
 90
        1
330
105F
360
1063
 90
        1
 90
        3
 90
        3
360
1066
360
1067
360
1068
  0
ACDBASSOCACTION
  5
10CE
330
105F
100
AcDbAssocAction
 90
        1
 90
        1
330
105F
360
10CF
 90
        2
 90
        3
 90
        3
360
10D2
360
10D3
360
10D4
  0
XRECORD
  5
1193
102
{ACAD_REACTORS
330
1192
102
}
330
1192
100
AcDbXrecord
280
     1
102
DISPLAYNAME
  1
Imperial24
102
FLAGS
 90
        0
  0
XRECORD
  5
118F
102
{ACAD_REACTORS
330
118E
102
}
330
118E
100
AcDbXrecord
280
     1
102
DISPLAYNAME
  1
Metric50
102
FLAGS
 90
        0
  0
XRECORD
  5
1153
102
{ACAD_REACTORS
330
1152
102
}
330
1152
100
AcDbXrecord
280
     1
102
SHADEPLOT
 70
     0
102
SHADEPLOTRESLEVEL
 70
     2
102
SHADEPLOTCUSTOMDPI
 70
   300
  0
XRECORD
  5
1155
102
{ACAD_REACTORS
330
1154
102
}
330
1154
100
AcDbXrecord
280
     1
102
SHADEPLOT
 70
     0
102
SHADEPLOTRESLEVEL
 70
     2
102
SHADEPLOTCUSTOMDPI
 70
   300
  0
XRECORD
  5
1151
102
{ACAD_REACTORS
330
1150
102
}
330
1150
100
AcDbXrecord
280
     1
102
SHADEPLOT
 70
     0
102
SHADEPLOTRESLEVEL
 70
     2
102
SHADEPLOTCUSTOMDPI
 70
   300
  0
XRECORD
  5
1157
102
{ACAD_REACTORS
330
DAE
102
}
330
DAE
100
AcDbXrecord
280
     1
102
MATERIAL
148
0.0
149
0.0
149
0.0
 93
        0
 94
      127
282
     0
 72
     0
 77
     0
171
     0
175
     0
179
     0
273
     0
  0
XRECORD
  5
DB0
102
{ACAD_REACTORS
330
DAE
102
}
330
DAE
100
AcDbXrecord
280
     1
270
     1
271
     1
  0
XRECORD
  5
DAF
102
{ACAD_REACTORS
330
DAE
102
}
330
DAE
100
AcDbXrecord
280
     1
270
     1
271
     1
  0
XRECORD
  5
DB3
102
{ACAD_REACTORS
330
DAE
102
}
330
DAE
100
AcDbXrecord
280
     1
270
     1
271
     1
  0
XRECORD
  5
DB2
102
{ACAD_REACTORS
330
DAE
102
}
330
DAE
100
AcDbXrecord
280
     1
270
     1
271
     1
  0
XRECORD
  5
DB4
102
{ACAD_REACTORS
330
DAE
102
}
330
DAE
100
AcDbXrecord
280
     1
270
     1
271
     1
  0
XRECORD
  5
DB1
102
{ACAD_REACTORS
330
DAE
102
}
330
DAE
100
AcDbXrecord
280
     1
270
     1
271
     1
  0
XRECORD
  5
1156
102
{ACAD_REACTORS
330
DA6
102
}
330
DA6
100
AcDbXrecord
280
     1
102
MATERIAL
148
0.0
149
0.0
149
0.0
 93
        0
 94
      127
282
     0
 72
     0
 77
     0
171
     0
175
     0
179
     0
273
     0
  0
XRECORD
  5
DA8
102
{ACAD_REACTORS
330
DA6
102
}
330
DA6
100
AcDbXrecord
280
     1
270
     1
271
     1
  0
XRECORD
  5
DA7
102
{ACAD_REACTORS
330
DA6
102
}
330
DA6
100
AcDbXrecord
280
     1
270
     1
271
     1
  0
XRECORD
  5
DAB
102
{ACAD_REACTORS
330
DA6
102
}
330
DA6
100
AcDbXrecord
280
     1
270
     1
271
     1
  0
XRECORD
  5
DAA
102
{ACAD_REACTORS
330
DA6
102
}
330
DA6
100
AcDbXrecord
280
     1
270
     1
271
     1
  0
XRECORD
  5
DAC
102
{ACAD_REACTORS
330
DA6
102
}
330
DA6
100
AcDbXrecord
280
     1
270
     1
271
     1
  0
XRECORD
  5
DA9
102
{ACAD_REACTORS
330
DA6
102
}
330
DA6
100
AcDbXrecord
280
     1
270
     1
271
     1
  0
XRECORD
  5
1158
102
{ACAD_REACTORS
330
DB6
102
}
330
DB6
100
AcDbXrecord
280
     1
102
MATERIAL
148
0.0
149
0.0
149
0.0
 93
        0
 94
      127
282
     0
 72
     0
 77
     0
171
     0
175
     0
179
     0
273
     0
  0
XRECORD
  5
DB8
102
{ACAD_REACTORS
330
DB6
102
}
330
DB6
100
AcDbXrecord
280
     1
270
     1
271
     1
  0
XRECORD
  5
DB7
102
{ACAD_REACTORS
330
DB6
102
}
330
DB6
100
AcDbXrecord
280
     1
270
     1
271
     1
  0
XRECORD
  5
DBB
102
{ACAD_REACTORS
330
DB6
102
}
330
DB6
100
AcDbXrecord
280
     1
270
     1
271
     1
  0
XRECORD
  5
DBA
102
{ACAD_REACTORS
330
DB6
102
}
330
DB6
100
AcDbXrecord
280
     1
270
     1
271
     1
  0
XRECORD
  5
DBC
102
{ACAD_REACTORS
330
DB6
102
}
330
DB6
100
AcDbXrecord
280
     1
270
     1
271
     1
  0
XRECORD
  5
DB9
102
{ACAD_REACTORS
330
DB6
102
}
330
DB6
100
AcDbXrecord
280
     1
270
     1
271
     1
  0
XRECORD
  5
118B
102
{ACAD_REACTORS
330
118A
102
}
330
118A
100
AcDbXrecord
280
     1
102
ACAD_ROUNDTRIP_2012_MLEADER_STYLE
298
     1
  0
XRECORD
  5
1191
102
{ACAD_REACTORS
330
1190
102
}
330
1190
100
AcDbXrecord
280
     1
102
DISPLAYNAME
  1
Imperial24
102
FLAGS
 90
        0
  0
XRECORD
  5
118D
102
{ACAD_REACTORS
330
118C
102
}
330
118C
100
AcDbXrecord
280
     1
102
DISPLAYNAME
  1
Metric50
102
FLAGS
 90
        0
  0
CELLSTYLEMAP
  5
114D
102
{ACAD_REACTORS
330
E0A
102
}
330
E0A
100
AcDbCellStyleMap
 90
        3
300
CELLSTYLE
  1
TABLEFORMAT_BEGIN
 90
        5
170
     1
 91
        0
 92
    32768
 62
   257
 93
        1
300
CONTENTFORMAT
  1
CONTENTFORMAT_BEGIN
 90
        0
 91
        0
 92
      512
 93
        0
300

 40
0.0
140
1.0
 94
        5
 62
     0
340
9
144
6.0
309
CONTENTFORMAT_END
171
     1
301
MARGIN
  1
CELLMARGIN_BEGIN
 40
1.5
 40
1.5
 40
1.5
 40
1.5
 40
4.5
 40
4.5
309
CELLMARGIN_END
 94
        6
 95
        1
302
GRIDFORMAT
  1
GRIDFORMAT_BEGIN
 90
        0
 91
        1
 62
     0
 92
       -2
340
0
 93
        0
 40
1.125
309
GRIDFORMAT_END
 95
        2
302
GRIDFORMAT
  1
GRIDFORMAT_BEGIN
 90
        0
 91
        1
 62
     0
 92
       -2
340
0
 93
        0
 40
1.125
309
GRIDFORMAT_END
 95
        4
302
GRIDFORMAT
  1
GRIDFORMAT_BEGIN
 90
        0
 91
        1
 62
     0
 92
       -2
340
0
 93
        0
 40
1.125
309
GRIDFORMAT_END
 95
        8
302
GRIDFORMAT
  1
GRIDFORMAT_BEGIN
 90
        0
 91
        1
 62
     0
 92
       -2
340
0
 93
        0
 40
1.125
309
GRIDFORMAT_END
 95
       16
302
GRIDFORMAT
  1
GRIDFORMAT_BEGIN
 90
        0
 91
        1
 62
     0
 92
       -2
340
0
 93
        0
 40
1.125
309
GRIDFORMAT_END
 95
       32
302
GRIDFORMAT
  1
GRIDFORMAT_BEGIN
 90
        0
 91
        1
 62
     0
 92
       -2
340
0
 93
        0
 40
1.125
309
GRIDFORMAT_END
309
TABLEFORMAT_END
  1
CELLSTYLE_BEGIN
 90
        1
 91
        1
300
_TITLE
309
CELLSTYLE_END
300
CELLSTYLE
  1
TABLEFORMAT_BEGIN
 90
        5
170
     1
 91
        0
 92
        0
 62
   257
 93
        1
300
CONTENTFORMAT
  1
CONTENTFORMAT_BEGIN
 90
        0
 91
        0
 92
      512
 93
        0
300

 40
0.0
140
1.0
 94
        5
 62
     0
340
9
144
4.5
309
CONTENTFORMAT_END
171
     1
301
MARGIN
  1
CELLMARGIN_BEGIN
 40
1.5
 40
1.5
 40
1.5
 40
1.5
 40
4.5
 40
4.5
309
CELLMARGIN_END
 94
        6
 95
        1
302
GRIDFORMAT
  1
GRIDFORMAT_BEGIN
 90
        0
 91
        1
 62
     0
 92
       -2
340
0
 93
        0
 40
1.125
309
GRIDFORMAT_END
 95
        2
302
GRIDFORMAT
  1
GRIDFORMAT_BEGIN
 90
        0
 91
        1
 62
     0
 92
       -2
340
0
 93
        0
 40
1.125
309
GRIDFORMAT_END
 95
        4
302
GRIDFORMAT
  1
GRIDFORMAT_BEGIN
 90
        0
 91
        1
 62
     0
 92
       -2
340
0
 93
        0
 40
1.125
309
GRIDFORMAT_END
 95
        8
302
GRIDFORMAT
  1
GRIDFORMAT_BEGIN
 90
        0
 91
        1
 62
     0
 92
       -2
340
0
 93
        0
 40
1.125
309
GRIDFORMAT_END
 95
       16
302
GRIDFORMAT
  1
GRIDFORMAT_BEGIN
 90
        0
 91
        1
 62
     0
 92
       -2
340
0
 93
        0
 40
1.125
309
GRIDFORMAT_END
 95
       32
302
GRIDFORMAT
  1
GRIDFORMAT_BEGIN
 90
        0
 91
        1
 62
     0
 92
       -2
340
0
 93
        0
 40
1.125
309
GRIDFORMAT_END
309
TABLEFORMAT_END
  1
CELLSTYLE_BEGIN
 90
        2
 91
        1
300
_HEADER
309
CELLSTYLE_END
300
CELLSTYLE
  1
TABLEFORMAT_BEGIN
 90
        5
170
     1
 91
        0
 92
        0
 62
   257
 93
        1
300
CONTENTFORMAT
  1
CONTENTFORMAT_BEGIN
 90
        0
 91
        0
 92
      512
 93
        0
300

 40
0.0
140
1.0
 94
        2
 62
     0
340
9
144
4.5
309
CONTENTFORMAT_END
171
     1
301
MARGIN
  1
CELLMARGIN_BEGIN
 40
1.5
 40
1.5
 40
1.5
 40
1.5
 40
4.5
 40
4.5
309
CELLMARGIN_END
 94
        6
 95
        1
302
GRIDFORMAT
  1
GRIDFORMAT_BEGIN
 90
        0
 91
        1
 62
     0
 92
       -2
340
0
 93
        0
 40
1.125
309
GRIDFORMAT_END
 95
        2
302
GRIDFORMAT
  1
GRIDFORMAT_BEGIN
 90
        0
 91
        1
 62
     0
 92
       -2
340
0
 93
        0
 40
1.125
309
GRIDFORMAT_END
 95
        4
302
GRIDFORMAT
  1
GRIDFORMAT_BEGIN
 90
        0
 91
        1
 62
     0
 92
       -2
340
0
 93
        0
 40
1.125
309
GRIDFORMAT_END
 95
        8
302
GRIDFORMAT
  1
GRIDFORMAT_BEGIN
 90
        0
 91
        1
 62
     0
 92
       -2
340
0
 93
        0
 40
1.125
309
GRIDFORMAT_END
 95
       16
302
GRIDFORMAT
  1
GRIDFORMAT_BEGIN
 90
        0
 91
        1
 62
     0
 92
       -2
340
0
 93
        0
 40
1.125
309
GRIDFORMAT_END
 95
       32
302
GRIDFORMAT
  1
GRIDFORMAT_BEGIN
 90
        0
 91
        1
 62
     0
 92
       -2
340
0
 93
        0
 40
1.125
309
GRIDFORMAT_END
309
TABLEFORMAT_END
  1
CELLSTYLE_BEGIN
 90
        3
 91
        2
300
_DATA
309
CELLSTYLE_END
  0
XRECORD
  5
1189
102
{ACAD_REACTORS
330
E0A
102
}
330
E0A
100
AcDbXrecord
280
     1
102
ACAD_ROUNDTRIP_PRE2007_TABLESTYLE
 90
      512
 91
        0
  1

 92
      512
 93
        0
  2

 94
      512
 95
        0
  3

  0
XRECORD
  5
1164
102
{ACAD_REACTORS
330
1163
102
}
330
1163
100
AcDbXrecord
280
     1
102
RTVSPost2010Prop28
280
     1
102
RTVSPost2010PropOp28
 70
     1
102
RTVSPost2010Prop29
280
     1
102
RTVSPost2010PropOp29
 70
     1
102
RTVSPost2010Prop30
280
     0
102
RTVSPost2010PropOp30
 70
     1
102
RTVSPost2010Prop31
280
     0
102
RTVSPost2010PropOp31
 70
     1
102
RTVSPost2010Prop32
280
     0
102
RTVSPost2010PropOp32
 70
     1
102
RTVSPost2010Prop33
280
     0
102
RTVSPost2010PropOp33
 70
     1
102
RTVSPost2010Prop34
280
     0
102
RTVSPost2010PropOp34
 70
     1
102
RTVSPost2010Prop35
280
     0
102
RTVSPost2010PropOp35
 70
     1
102
RTVSPost2010Prop36
280
     0
102
RTVSPost2010PropOp36
 70
     1
102
RTVSPost2010Prop37
 90
       50
102
RTVSPost2010PropOp37
 70
     1
102
RTVSPost2010Prop38
140
0.0
102
RTVSPost2010PropOp38
 70
     1
102
RTVSPost2010Prop39
140
1.0
102
RTVSPost2010PropOp39
 70
     1
102
RTVSPost2010Prop40
 90
        0
102
RTVSPost2010PropOp40
 70
     1
102
RTVSPost2010Prop41ColorIndex
 90
       18
102
RTVSPost2010Prop41ColorRGB
 90
        0
102
RTVSPost2010PropOp41
 70
     1
102
RTVSPost2010Prop42
 90
       50
102
RTVSPost2010PropOp42
 70
     1
102
RTVSPost2010Prop43
 90
        3
102
RTVSPost2010PropOp43
 70
     1
102
RTVSPost2010Prop44ColorIndex
 90
        5
102
RTVSPost2010Prop44ColorRGB
 90
      255
102
RTVSPost2010PropOp44
 70
     1
102
RTVSPost2010Prop45
280
     0
102
RTVSPost2010PropOp45
 70
     1
102
RTVSPost2010Prop46
 90
       50
102
RTVSPost2010PropOp46
 70
     1
102
RTVSPost2010Prop47
 90
       50
102
RTVSPost2010PropOp47
 70
     1
102
RTVSPost2010Prop48
 90
       50
102
RTVSPost2010PropOp48
 70
     1
102
RTVSPost2010Prop49
280
     0
102
RTVSPost2010PropOp49
 70
     1
102
RTVSPost2010Prop50
 90
       50
102
RTVSPost2010PropOp50
 70
     1
102
RTVSPost2010Prop51ColorIndex
 90
      256
102
RTVSPost2010Prop51ColorRGB
 90
-16777216
102
RTVSPost2010PropOp51
 70
     0
102
RTVSPost2010Prop52
140
1.0
102
RTVSPost2010PropOp52
 70
     0
102
RTVSPost2010Prop53
 90
        2
102
RTVSPost2010PropOp53
 70
     1
102
RTVSPost2010Prop54
  1
strokes_ogs.tif
102
RTVSPost2010PropOp54
 70
     1
102
RTVSPost2010Prop55
280
     0
102
RTVSPost2010PropOp55
 70
     1
102
RTVSPost2010Prop56
140
1.0
102
RTVSPost2010PropOp56
 70
     1
102
RTVSPost2010Prop57
140
1.0
102
RTVSPost2010PropOp57
 70
     1
102
RTVSPropertyOp0
 70
     1
102
RTVSPropertyOp1
 70
     1
102
RTVSPropertyOp2
 70
     1
102
RTVSPropertyOp3
 70
     1
102
RTVSPropertyOp4
 70
     1
102
RTVSPropertyOp5
 70
     1
102
RTVSPropertyOp6
 70
     1
102
RTVSPropertyOp7
 70
     1
102
RTVSPropertyOp8
 70
     1
102
RTVSPropertyOp9
 70
     1
102
RTVSPropertyOp10
 70
     1
102
RTVSPropertyOp11
 70
     1
102
RTVSPropertyOp12
 70
     1
102
RTVSPropertyOp13
 70
     1
102
RTVSPropertyOp14
 70
     1
102
RTVSPropertyOp15
 70
     1
102
RTVSPropertyOp16
 70
     1
102
RTVSPropertyOp17
 70
     1
102
RTVSPropertyOp18
 70
     1
102
RTVSPropertyOp19
 70
     1
102
RTVSPropertyOp20
 70
     1
102
RTVSPropertyOp21
 70
     1
102
RTVSPropertyOp22
 70
     1
102
RTVSPropertyOp23
 70
     1
102
RTVSPropertyOp24
 70
     1
102
RTVSPropertyOp25
 70
     1
102
RTVSPropertyOp26
 70
     1
102
RTVSPropertyOp27
 70
     1
102
RTVSPropertyOp28
 70
     1
102
RTVSPropertyOp29
 70
     1
102
RTVSPropertyOp30
 70
     1
102
RTVSPropertyOp31
 70
     1
102
RTVSPropertyOp32
 70
     1
102
RTVSPropertyOp33
 70
     1
102
RTVSPropertyOp34
 70
     1
102
RTVSPropertyOp35
 70
     1
102
RTVSPropertyOp36
 70
     1
102
RTVSPropertyOp37
 70
     1
102
RTVSPropertyOp38
 70
     1
102
RTVSPropertyOp39
 70
     1
102
RTVSPropertyOp40
 70
     1
102
RTVSPropertyOp41
 70
     1
102
RTVSPropertyOp42
 70
     1
102
RTVSPropertyOp43
 70
     1
102
RTVSPropertyOp44
 70
     1
102
RTVSPropertyOp45
 70
     1
102
RTVSPropertyOp46
 70
     1
102
RTVSPropertyOp47
 70
     1
102
RTVSPropertyOp48
 70
     1
102
RTVSPropertyOp49
 70
     1
102
RTVSPropertyOp50
 70
     1
102
RTVSPropertyOp51
 70
     0
102
RTVSPropertyOp52
 70
     0
102
RTVSPropertyOp53
 70
     1
102
RTVSPropertyOp54
 70
     1
102
RTVSPropertyOp55
 70
     1
102
RTVSPropertyOp56
 70
     1
102
RTVSPropertyOp57
 70
     1
102
RTVSPropertyOp58
 70
     1
102
RTVSPropertyOp59
 70
     1
102
RTVSPropertyOp60
 70
     1
102
RTVSPropertyOp61
 70
     1
102
RTVSPropertyOp62
 70
     1
  0
XRECORD
  5
1162
102
{ACAD_REACTORS
330
1161
102
}
330
1161
100
AcDbXrecord
280
     1
102
RTVSPost2010Prop28
280
     0
102
RTVSPost2010PropOp28
 70
     1
102
RTVSPost2010Prop29
280
     1
102
RTVSPost2010PropOp29
 70
     1
102
RTVSPost2010Prop30
280
     1
102
RTVSPost2010PropOp30
 70
     1
102
RTVSPost2010Prop31
280
     0
102
RTVSPost2010PropOp31
 70
     1
102
RTVSPost2010Prop32
280
     0
102
RTVSPost2010PropOp32
 70
     1
102
RTVSPost2010Prop33
280
     0
102
RTVSPost2010PropOp33
 70
     1
102
RTVSPost2010Prop34
280
     0
102
RTVSPost2010PropOp34
 70
     1
102
RTVSPost2010Prop35
280
     0
102
RTVSPost2010PropOp35
 70
     1
102
RTVSPost2010Prop36
280
     0
102
RTVSPost2010PropOp36
 70
     1
102
RTVSPost2010Prop37
 90
       50
102
RTVSPost2010PropOp37
 70
     1
102
RTVSPost2010Prop38
140
0.0
102
RTVSPost2010PropOp38
 70
     1
102
RTVSPost2010Prop39
140
1.0
102
RTVSPost2010PropOp39
 70
     1
102
RTVSPost2010Prop40
 90
        0
102
RTVSPost2010PropOp40
 70
     1
102
RTVSPost2010Prop41ColorIndex
 90
       18
102
RTVSPost2010Prop41ColorRGB
 90
        0
102
RTVSPost2010PropOp41
 70
     1
102
RTVSPost2010Prop42
 90
       50
102
RTVSPost2010PropOp42
 70
     1
102
RTVSPost2010Prop43
 90
        3
102
RTVSPost2010PropOp43
 70
     1
102
RTVSPost2010Prop44ColorIndex
 90
        5
102
RTVSPost2010Prop44ColorRGB
 90
      255
102
RTVSPost2010PropOp44
 70
     1
102
RTVSPost2010Prop45
280
     0
102
RTVSPost2010PropOp45
 70
     1
102
RTVSPost2010Prop46
 90
       50
102
RTVSPost2010PropOp46
 70
     1
102
RTVSPost2010Prop47
 90
       50
102
RTVSPost2010PropOp47
 70
     1
102
RTVSPost2010Prop48
 90
       50
102
RTVSPost2010PropOp48
 70
     1
102
RTVSPost2010Prop49
280
     0
102
RTVSPost2010PropOp49
 70
     1
102
RTVSPost2010Prop50
 90
       50
102
RTVSPost2010PropOp50
 70
     1
102
RTVSPost2010Prop51ColorIndex
 90
      256
102
RTVSPost2010Prop51ColorRGB
 90
-16777216
102
RTVSPost2010PropOp51
 70
     0
102
RTVSPost2010Prop52
140
1.0
102
RTVSPost2010PropOp52
 70
     0
102
RTVSPost2010Prop53
 90
        2
102
RTVSPost2010PropOp53
 70
     1
102
RTVSPost2010Prop54
  1
strokes_ogs.tif
102
RTVSPost2010PropOp54
 70
     1
102
RTVSPost2010Prop55
280
     0
102
RTVSPost2010PropOp55
 70
     1
102
RTVSPost2010Prop56
140
1.0
102
RTVSPost2010PropOp56
 70
     1
102
RTVSPost2010Prop57
140
1.0
102
RTVSPost2010PropOp57
 70
     1
102
RTVSPropertyOp0
 70
     1
102
RTVSPropertyOp1
 70
     1
102
RTVSPropertyOp2
 70
     1
102
RTVSPropertyOp3
 70
     1
102
RTVSPropertyOp4
 70
     1
102
RTVSPropertyOp5
 70
     1
102
RTVSPropertyOp6
 70
     1
102
RTVSPropertyOp7
 70
     1
102
RTVSPropertyOp8
 70
     1
102
RTVSPropertyOp9
 70
     1
102
RTVSPropertyOp10
 70
     1
102
RTVSPropertyOp11
 70
     1
102
RTVSPropertyOp12
 70
     1
102
RTVSPropertyOp13
 70
     1
102
RTVSPropertyOp14
 70
     1
102
RTVSPropertyOp15
 70
     1
102
RTVSPropertyOp16
 70
     1
102
RTVSPropertyOp17
 70
     1
102
RTVSPropertyOp18
 70
     1
102
RTVSPropertyOp19
 70
     1
102
RTVSPropertyOp20
 70
     1
102
RTVSPropertyOp21
 70
     1
102
RTVSPropertyOp22
 70
     1
102
RTVSPropertyOp23
 70
     1
102
RTVSPropertyOp24
 70
     1
102
RTVSPropertyOp25
 70
     1
102
RTVSPropertyOp26
 70
     1
102
RTVSPropertyOp27
 70
     1
102
RTVSPropertyOp28
 70
     1
102
RTVSPropertyOp29
 70
     1
102
RTVSPropertyOp30
 70
     1
102
RTVSPropertyOp31
 70
     1
102
RTVSPropertyOp32
 70
     1
102
RTVSPropertyOp33
 70
     1
102
RTVSPropertyOp34
 70
     1
102
RTVSPropertyOp35
 70
     1
102
RTVSPropertyOp36
 70
     1
102
RTVSPropertyOp37
 70
     1
102
RTVSPropertyOp38
 70
     1
102
RTVSPropertyOp39
 70
     1
102
RTVSPropertyOp40
 70
     1
102
RTVSPropertyOp41
 70
     1
102
RTVSPropertyOp42
 70
     1
102
RTVSPropertyOp43
 70
     1
102
RTVSPropertyOp44
 70
     1
102
RTVSPropertyOp45
 70
     1
102
RTVSPropertyOp46
 70
     1
102
RTVSPropertyOp47
 70
     1
102
RTVSPropertyOp48
 70
     1
102
RTVSPropertyOp49
 70
     1
102
RTVSPropertyOp50
 70
     1
102
RTVSPropertyOp51
 70
     0
102
RTVSPropertyOp52
 70
     0
102
RTVSPropertyOp53
 70
     1
102
RTVSPropertyOp54
 70
     1
102
RTVSPropertyOp55
 70
     1
102
RTVSPropertyOp56
 70
     1
102
RTVSPropertyOp57
 70
     1
102
RTVSPropertyOp58
 70
     1
102
RTVSPropertyOp59
 70
     1
102
RTVSPropertyOp60
 70
     1
102
RTVSPropertyOp61
 70
     1
102
RTVSPropertyOp62
 70
     1
  0
XRECORD
  5
1170
102
{ACAD_REACTORS
330
116F
102
}
330
116F
100
AcDbXrecord
280
     1
102
RTVSPost2010Prop28
280
     0
102
RTVSPost2010PropOp28
 70
     1
102
RTVSPost2010Prop29
280
     1
102
RTVSPost2010PropOp29
 70
     1
102
RTVSPost2010Prop30
280
     1
102
RTVSPost2010PropOp30
 70
     1
102
RTVSPost2010Prop31
280
     0
102
RTVSPost2010PropOp31
 70
     1
102
RTVSPost2010Prop32
280
     0
102
RTVSPost2010PropOp32
 70
     1
102
RTVSPost2010Prop33
280
     0
102
RTVSPost2010PropOp33
 70
     1
102
RTVSPost2010Prop34
280
     0
102
RTVSPost2010PropOp34
 70
     1
102
RTVSPost2010Prop35
280
     0
102
RTVSPost2010PropOp35
 70
     1
102
RTVSPost2010Prop36
280
     0
102
RTVSPost2010PropOp36
 70
     1
102
RTVSPost2010Prop37
 90
       50
102
RTVSPost2010PropOp37
 70
     1
102
RTVSPost2010Prop38
140
0.0
102
RTVSPost2010PropOp38
 70
     1
102
RTVSPost2010Prop39
140
1.0
102
RTVSPost2010PropOp39
 70
     1
102
RTVSPost2010Prop40
 90
        0
102
RTVSPost2010PropOp40
 70
     1
102
RTVSPost2010Prop41ColorIndex
 90
       18
102
RTVSPost2010Prop41ColorRGB
 90
        0
102
RTVSPost2010PropOp41
 70
     1
102
RTVSPost2010Prop42
 90
       50
102
RTVSPost2010PropOp42
 70
     1
102
RTVSPost2010Prop43
 90
        3
102
RTVSPost2010PropOp43
 70
     1
102
RTVSPost2010Prop44ColorIndex
 90
        5
102
RTVSPost2010Prop44ColorRGB
 90
      255
102
RTVSPost2010PropOp44
 70
     1
102
RTVSPost2010Prop45
280
     0
102
RTVSPost2010PropOp45
 70
     1
102
RTVSPost2010Prop46
 90
       50
102
RTVSPost2010PropOp46
 70
     1
102
RTVSPost2010Prop47
 90
       50
102
RTVSPost2010PropOp47
 70
     1
102
RTVSPost2010Prop48
 90
       50
102
RTVSPost2010PropOp48
 70
     1
102
RTVSPost2010Prop49
280
     0
102
RTVSPost2010PropOp49
 70
     1
102
RTVSPost2010Prop50
 90
       50
102
RTVSPost2010PropOp50
 70
     1
102
RTVSPost2010Prop51ColorIndex
 90
      256
102
RTVSPost2010Prop51ColorRGB
 90
-16777216
102
RTVSPost2010PropOp51
 70
     0
102
RTVSPost2010Prop52
140
1.0
102
RTVSPost2010PropOp52
 70
     0
102
RTVSPost2010Prop53
 90
        2
102
RTVSPost2010PropOp53
 70
     1
102
RTVSPost2010Prop54
  1
strokes_ogs.tif
102
RTVSPost2010PropOp54
 70
     1
102
RTVSPost2010Prop55
280
     0
102
RTVSPost2010PropOp55
 70
     1
102
RTVSPost2010Prop56
140
1.0
102
RTVSPost2010PropOp56
 70
     1
102
RTVSPost2010Prop57
140
1.0
102
RTVSPost2010PropOp57
 70
     1
102
RTVSPropertyOp0
 70
     1
102
RTVSPropertyOp1
 70
     1
102
RTVSPropertyOp2
 70
     1
102
RTVSPropertyOp3
 70
     1
102
RTVSPropertyOp4
 70
     1
102
RTVSPropertyOp5
 70
     1
102
RTVSPropertyOp6
 70
     1
102
RTVSPropertyOp7
 70
     1
102
RTVSPropertyOp8
 70
     1
102
RTVSPropertyOp9
 70
     1
102
RTVSPropertyOp10
 70
     1
102
RTVSPropertyOp11
 70
     1
102
RTVSPropertyOp12
 70
     1
102
RTVSPropertyOp13
 70
     1
102
RTVSPropertyOp14
 70
     1
102
RTVSPropertyOp15
 70
     1
102
RTVSPropertyOp16
 70
     1
102
RTVSPropertyOp17
 70
     1
102
RTVSPropertyOp18
 70
     1
102
RTVSPropertyOp19
 70
     1
102
RTVSPropertyOp20
 70
     1
102
RTVSPropertyOp21
 70
     1
102
RTVSPropertyOp22
 70
     1
102
RTVSPropertyOp23
 70
     1
102
RTVSPropertyOp24
 70
     1
102
RTVSPropertyOp25
 70
     1
102
RTVSPropertyOp26
 70
     1
102
RTVSPropertyOp27
 70
     1
102
RTVSPropertyOp28
 70
     1
102
RTVSPropertyOp29
 70
     1
102
RTVSPropertyOp30
 70
     1
102
RTVSPropertyOp31
 70
     1
102
RTVSPropertyOp32
 70
     1
102
RTVSPropertyOp33
 70
     1
102
RTVSPropertyOp34
 70
     1
102
RTVSPropertyOp35
 70
     1
102
RTVSPropertyOp36
 70
     1
102
RTVSPropertyOp37
 70
     1
102
RTVSPropertyOp38
 70
     1
102
RTVSPropertyOp39
 70
     1
102
RTVSPropertyOp40
 70
     1
102
RTVSPropertyOp41
 70
     1
102
RTVSPropertyOp42
 70
     1
102
RTVSPropertyOp43
 70
     1
102
RTVSPropertyOp44
 70
     1
102
RTVSPropertyOp45
 70
     1
102
RTVSPropertyOp46
 70
     1
102
RTVSPropertyOp47
 70
     1
102
RTVSPropertyOp48
 70
     1
102
RTVSPropertyOp49
 70
     1
102
RTVSPropertyOp50
 70
     1
102
RTVSPropertyOp51
 70
     0
102
RTVSPropertyOp52
 70
     0
102
RTVSPropertyOp53
 70
     1
102
RTVSPropertyOp54
 70
     1
102
RTVSPropertyOp55
 70
     1
102
RTVSPropertyOp56
 70
     1
102
RTVSPropertyOp57
 70
     1
102
RTVSPropertyOp58
 70
     1
102
RTVSPropertyOp59
 70
     1
102
RTVSPropertyOp60
 70
     1
102
RTVSPropertyOp61
 70
     1
102
RTVSPropertyOp62
 70
     1
  0
XRECORD
  5
1178
102
{ACAD_REACTORS
330
1177
102
}
330
1177
100
AcDbXrecord
280
     1
102
RTVSPost2010Prop28
280
     0
102
RTVSPost2010PropOp28
 70
     1
102
RTVSPost2010Prop29
280
     1
102
RTVSPost2010PropOp29
 70
     1
102
RTVSPost2010Prop30
280
     1
102
RTVSPost2010PropOp30
 70
     1
102
RTVSPost2010Prop31
280
     0
102
RTVSPost2010PropOp31
 70
     1
102
RTVSPost2010Prop32
280
     0
102
RTVSPost2010PropOp32
 70
     1
102
RTVSPost2010Prop33
280
     0
102
RTVSPost2010PropOp33
 70
     1
102
RTVSPost2010Prop34
280
     0
102
RTVSPost2010PropOp34
 70
     1
102
RTVSPost2010Prop35
280
     0
102
RTVSPost2010PropOp35
 70
     1
102
RTVSPost2010Prop36
280
     0
102
RTVSPost2010PropOp36
 70
     1
102
RTVSPost2010Prop37
 90
       50
102
RTVSPost2010PropOp37
 70
     1
102
RTVSPost2010Prop38
140
0.0
102
RTVSPost2010PropOp38
 70
     1
102
RTVSPost2010Prop39
140
1.0
102
RTVSPost2010PropOp39
 70
     1
102
RTVSPost2010Prop40
 90
        0
102
RTVSPost2010PropOp40
 70
     1
102
RTVSPost2010Prop41ColorIndex
 90
       18
102
RTVSPost2010Prop41ColorRGB
 90
        0
102
RTVSPost2010PropOp41
 70
     1
102
RTVSPost2010Prop42
 90
       50
102
RTVSPost2010PropOp42
 70
     1
102
RTVSPost2010Prop43
 90
        3
102
RTVSPost2010PropOp43
 70
     1
102
RTVSPost2010Prop44ColorIndex
 90
        5
102
RTVSPost2010Prop44ColorRGB
 90
      255
102
RTVSPost2010PropOp44
 70
     1
102
RTVSPost2010Prop45
280
     0
102
RTVSPost2010PropOp45
 70
     1
102
RTVSPost2010Prop46
 90
       50
102
RTVSPost2010PropOp46
 70
     1
102
RTVSPost2010Prop47
 90
       50
102
RTVSPost2010PropOp47
 70
     1
102
RTVSPost2010Prop48
 90
       50
102
RTVSPost2010PropOp48
 70
     1
102
RTVSPost2010Prop49
280
     0
102
RTVSPost2010PropOp49
 70
     1
102
RTVSPost2010Prop50
 90
       50
102
RTVSPost2010PropOp50
 70
     1
102
RTVSPost2010Prop51ColorIndex
 90
      256
102
RTVSPost2010Prop51ColorRGB
 90
-16777216
102
RTVSPost2010PropOp51
 70
     0
102
RTVSPost2010Prop52
140
1.0
102
RTVSPost2010PropOp52
 70
     0
102
RTVSPost2010Prop53
 90
        2
102
RTVSPost2010PropOp53
 70
     1
102
RTVSPost2010Prop54
  1
strokes_ogs.tif
102
RTVSPost2010PropOp54
 70
     1
102
RTVSPost2010Prop55
280
     0
102
RTVSPost2010PropOp55
 70
     1
102
RTVSPost2010Prop56
140
1.0
102
RTVSPost2010PropOp56
 70
     1
102
RTVSPost2010Prop57
140
1.0
102
RTVSPost2010PropOp57
 70
     1
102
RTVSPropertyOp0
 70
     1
102
RTVSPropertyOp1
 70
     1
102
RTVSPropertyOp2
 70
     1
102
RTVSPropertyOp3
 70
     1
102
RTVSPropertyOp4
 70
     1
102
RTVSPropertyOp5
 70
     1
102
RTVSPropertyOp6
 70
     1
102
RTVSPropertyOp7
 70
     1
102
RTVSPropertyOp8
 70
     1
102
RTVSPropertyOp9
 70
     1
102
RTVSPropertyOp10
 70
     1
102
RTVSPropertyOp11
 70
     1
102
RTVSPropertyOp12
 70
     1
102
RTVSPropertyOp13
 70
     1
102
RTVSPropertyOp14
 70
     1
102
RTVSPropertyOp15
 70
     1
102
RTVSPropertyOp16
 70
     1
102
RTVSPropertyOp17
 70
     1
102
RTVSPropertyOp18
 70
     1
102
RTVSPropertyOp19
 70
     1
102
RTVSPropertyOp20
 70
     1
102
RTVSPropertyOp21
 70
     1
102
RTVSPropertyOp22
 70
     1
102
RTVSPropertyOp23
 70
     1
102
RTVSPropertyOp24
 70
     1
102
RTVSPropertyOp25
 70
     1
102
RTVSPropertyOp26
 70
     1
102
RTVSPropertyOp27
 70
     1
102
RTVSPropertyOp28
 70
     1
102
RTVSPropertyOp29
 70
     1
102
RTVSPropertyOp30
 70
     1
102
RTVSPropertyOp31
 70
     1
102
RTVSPropertyOp32
 70
     1
102
RTVSPropertyOp33
 70
     1
102
RTVSPropertyOp34
 70
     1
102
RTVSPropertyOp35
 70
     1
102
RTVSPropertyOp36
 70
     1
102
RTVSPropertyOp37
 70
     1
102
RTVSPropertyOp38
 70
     1
102
RTVSPropertyOp39
 70
     1
102
RTVSPropertyOp40
 70
     1
102
RTVSPropertyOp41
 70
     1
102
RTVSPropertyOp42
 70
     1
102
RTVSPropertyOp43
 70
     1
102
RTVSPropertyOp44
 70
     1
102
RTVSPropertyOp45
 70
     1
102
RTVSPropertyOp46
 70
     1
102
RTVSPropertyOp47
 70
     1
102
RTVSPropertyOp48
 70
     1
102
RTVSPropertyOp49
 70
     1
102
RTVSPropertyOp50
 70
     1
102
RTVSPropertyOp51
 70
     0
102
RTVSPropertyOp52
 70
     0
102
RTVSPropertyOp53
 70
     1
102
RTVSPropertyOp54
 70
     1
102
RTVSPropertyOp55
 70
     1
102
RTVSPropertyOp56
 70
     1
102
RTVSPropertyOp57
 70
     1
102
RTVSPropertyOp58
 70
     1
102
RTVSPropertyOp59
 70
     1
102
RTVSPropertyOp60
 70
     1
102
RTVSPropertyOp61
 70
     1
102
RTVSPropertyOp62
 70
     1
  0
XRECORD
  5
116A
102
{ACAD_REACTORS
330
1169
102
}
330
1169
100
AcDbXrecord
280
     1
102
RTVSPost2010Prop28
280
     0
102
RTVSPost2010PropOp28
 70
     1
102
RTVSPost2010Prop29
280
     1
102
RTVSPost2010PropOp29
 70
     1
102
RTVSPost2010Prop30
280
     1
102
RTVSPost2010PropOp30
 70
     1
102
RTVSPost2010Prop31
280
     0
102
RTVSPost2010PropOp31
 70
     1
102
RTVSPost2010Prop32
280
     0
102
RTVSPost2010PropOp32
 70
     1
102
RTVSPost2010Prop33
280
     0
102
RTVSPost2010PropOp33
 70
     1
102
RTVSPost2010Prop34
280
     0
102
RTVSPost2010PropOp34
 70
     1
102
RTVSPost2010Prop35
280
     0
102
RTVSPost2010PropOp35
 70
     1
102
RTVSPost2010Prop36
280
     0
102
RTVSPost2010PropOp36
 70
     1
102
RTVSPost2010Prop37
 90
       50
102
RTVSPost2010PropOp37
 70
     1
102
RTVSPost2010Prop38
140
0.0
102
RTVSPost2010PropOp38
 70
     1
102
RTVSPost2010Prop39
140
1.0
102
RTVSPost2010PropOp39
 70
     1
102
RTVSPost2010Prop40
 90
        0
102
RTVSPost2010PropOp40
 70
     1
102
RTVSPost2010Prop41ColorIndex
 90
       18
102
RTVSPost2010Prop41ColorRGB
 90
        0
102
RTVSPost2010PropOp41
 70
     1
102
RTVSPost2010Prop42
 90
       50
102
RTVSPost2010PropOp42
 70
     1
102
RTVSPost2010Prop43
 90
        3
102
RTVSPost2010PropOp43
 70
     1
102
RTVSPost2010Prop44ColorIndex
 90
        5
102
RTVSPost2010Prop44ColorRGB
 90
      255
102
RTVSPost2010PropOp44
 70
     1
102
RTVSPost2010Prop45
280
     0
102
RTVSPost2010PropOp45
 70
     1
102
RTVSPost2010Prop46
 90
       50
102
RTVSPost2010PropOp46
 70
     1
102
RTVSPost2010Prop47
 90
       50
102
RTVSPost2010PropOp47
 70
     1
102
RTVSPost2010Prop48
 90
       50
102
RTVSPost2010PropOp48
 70
     1
102
RTVSPost2010Prop49
280
     0
102
RTVSPost2010PropOp49
 70
     1
102
RTVSPost2010Prop50
 90
       50
102
RTVSPost2010PropOp50
 70
     1
102
RTVSPost2010Prop51ColorIndex
 90
      256
102
RTVSPost2010Prop51ColorRGB
 90
-16777216
102
RTVSPost2010PropOp51
 70
     0
102
RTVSPost2010Prop52
140
1.0
102
RTVSPost2010PropOp52
 70
     0
102
RTVSPost2010Prop53
 90
        2
102
RTVSPost2010PropOp53
 70
     1
102
RTVSPost2010Prop54
  1
strokes_ogs.tif
102
RTVSPost2010PropOp54
 70
     1
102
RTVSPost2010Prop55
280
     0
102
RTVSPost2010PropOp55
 70
     1
102
RTVSPost2010Prop56
140
1.0
102
RTVSPost2010PropOp56
 70
     1
102
RTVSPost2010Prop57
140
1.0
102
RTVSPost2010PropOp57
 70
     1
102
RTVSPropertyOp0
 70
     1
102
RTVSPropertyOp1
 70
     1
102
RTVSPropertyOp2
 70
     1
102
RTVSPropertyOp3
 70
     1
102
RTVSPropertyOp4
 70
     1
102
RTVSPropertyOp5
 70
     1
102
RTVSPropertyOp6
 70
     1
102
RTVSPropertyOp7
 70
     1
102
RTVSPropertyOp8
 70
     1
102
RTVSPropertyOp9
 70
     1
102
RTVSPropertyOp10
 70
     1
102
RTVSPropertyOp11
 70
     1
102
RTVSPropertyOp12
 70
     1
102
RTVSPropertyOp13
 70
     1
102
RTVSPropertyOp14
 70
     1
102
RTVSPropertyOp15
 70
     1
102
RTVSPropertyOp16
 70
     1
102
RTVSPropertyOp17
 70
     1
102
RTVSPropertyOp18
 70
     1
102
RTVSPropertyOp19
 70
     1
102
RTVSPropertyOp20
 70
     1
102
RTVSPropertyOp21
 70
     1
102
RTVSPropertyOp22
 70
     1
102
RTVSPropertyOp23
 70
     1
102
RTVSPropertyOp24
 70
     1
102
RTVSPropertyOp25
 70
     1
102
RTVSPropertyOp26
 70
     1
102
RTVSPropertyOp27
 70
     1
102
RTVSPropertyOp28
 70
     1
102
RTVSPropertyOp29
 70
     1
102
RTVSPropertyOp30
 70
     1
102
RTVSPropertyOp31
 70
     1
102
RTVSPropertyOp32
 70
     1
102
RTVSPropertyOp33
 70
     1
102
RTVSPropertyOp34
 70
     1
102
RTVSPropertyOp35
 70
     1
102
RTVSPropertyOp36
 70
     1
102
RTVSPropertyOp37
 70
     1
102
RTVSPropertyOp38
 70
     1
102
RTVSPropertyOp39
 70
     1
102
RTVSPropertyOp40
 70
     1
102
RTVSPropertyOp41
 70
     1
102
RTVSPropertyOp42
 70
     1
102
RTVSPropertyOp43
 70
     1
102
RTVSPropertyOp44
 70
     1
102
RTVSPropertyOp45
 70
     1
102
RTVSPropertyOp46
 70
     1
102
RTVSPropertyOp47
 70
     1
102
RTVSPropertyOp48
 70
     1
102
RTVSPropertyOp49
 70
     1
102
RTVSPropertyOp50
 70
     1
102
RTVSPropertyOp51
 70
     0
102
RTVSPropertyOp52
 70
     0
102
RTVSPropertyOp53
 70
     1
102
RTVSPropertyOp54
 70
     1
102
RTVSPropertyOp55
 70
     1
102
RTVSPropertyOp56
 70
     1
102
RTVSPropertyOp57
 70
     1
102
RTVSPropertyOp58
 70
     1
102
RTVSPropertyOp59
 70
     1
102
RTVSPropertyOp60
 70
     1
102
RTVSPropertyOp61
 70
     1
102
RTVSPropertyOp62
 70
     1
  0
XRECORD
  5
116E
102
{ACAD_REACTORS
330
116D
102
}
330
116D
100
AcDbXrecord
280
     1
102
RTVSPost2010Prop28
280
     0
102
RTVSPost2010PropOp28
 70
     1
102
RTVSPost2010Prop29
280
     1
102
RTVSPost2010PropOp29
 70
     1
102
RTVSPost2010Prop30
280
     1
102
RTVSPost2010PropOp30
 70
     1
102
RTVSPost2010Prop31
280
     0
102
RTVSPost2010PropOp31
 70
     1
102
RTVSPost2010Prop32
280
     0
102
RTVSPost2010PropOp32
 70
     1
102
RTVSPost2010Prop33
280
     0
102
RTVSPost2010PropOp33
 70
     1
102
RTVSPost2010Prop34
280
     0
102
RTVSPost2010PropOp34
 70
     1
102
RTVSPost2010Prop35
280
     0
102
RTVSPost2010PropOp35
 70
     1
102
RTVSPost2010Prop36
280
     0
102
RTVSPost2010PropOp36
 70
     1
102
RTVSPost2010Prop37
 90
       50
102
RTVSPost2010PropOp37
 70
     1
102
RTVSPost2010Prop38
140
0.0
102
RTVSPost2010PropOp38
 70
     1
102
RTVSPost2010Prop39
140
1.0
102
RTVSPost2010PropOp39
 70
     1
102
RTVSPost2010Prop40
 90
        0
102
RTVSPost2010PropOp40
 70
     1
102
RTVSPost2010Prop41ColorIndex
 90
       18
102
RTVSPost2010Prop41ColorRGB
 90
        0
102
RTVSPost2010PropOp41
 70
     1
102
RTVSPost2010Prop42
 90
       50
102
RTVSPost2010PropOp42
 70
     1
102
RTVSPost2010Prop43
 90
        3
102
RTVSPost2010PropOp43
 70
     1
102
RTVSPost2010Prop44ColorIndex
 90
        5
102
RTVSPost2010Prop44ColorRGB
 90
      255
102
RTVSPost2010PropOp44
 70
     1
102
RTVSPost2010Prop45
280
     0
102
RTVSPost2010PropOp45
 70
     1
102
RTVSPost2010Prop46
 90
       50
102
RTVSPost2010PropOp46
 70
     1
102
RTVSPost2010Prop47
 90
       50
102
RTVSPost2010PropOp47
 70
     1
102
RTVSPost2010Prop48
 90
       50
102
RTVSPost2010PropOp48
 70
     1
102
RTVSPost2010Prop49
280
     0
102
RTVSPost2010PropOp49
 70
     1
102
RTVSPost2010Prop50
 90
       50
102
RTVSPost2010PropOp50
 70
     1
102
RTVSPost2010Prop51ColorIndex
 90
      256
102
RTVSPost2010Prop51ColorRGB
 90
-16777216
102
RTVSPost2010PropOp51
 70
     0
102
RTVSPost2010Prop52
140
1.0
102
RTVSPost2010PropOp52
 70
     0
102
RTVSPost2010Prop53
 90
        2
102
RTVSPost2010PropOp53
 70
     1
102
RTVSPost2010Prop54
  1
strokes_ogs.tif
102
RTVSPost2010PropOp54
 70
     1
102
RTVSPost2010Prop55
280
     0
102
RTVSPost2010PropOp55
 70
     1
102
RTVSPost2010Prop56
140
1.0
102
RTVSPost2010PropOp56
 70
     1
102
RTVSPost2010Prop57
140
1.0
102
RTVSPost2010PropOp57
 70
     1
102
RTVSPropertyOp0
 70
     1
102
RTVSPropertyOp1
 70
     1
102
RTVSPropertyOp2
 70
     1
102
RTVSPropertyOp3
 70
     1
102
RTVSPropertyOp4
 70
     1
102
RTVSPropertyOp5
 70
     1
102
RTVSPropertyOp6
 70
     1
102
RTVSPropertyOp7
 70
     1
102
RTVSPropertyOp8
 70
     1
102
RTVSPropertyOp9
 70
     1
102
RTVSPropertyOp10
 70
     1
102
RTVSPropertyOp11
 70
     1
102
RTVSPropertyOp12
 70
     1
102
RTVSPropertyOp13
 70
     1
102
RTVSPropertyOp14
 70
     1
102
RTVSPropertyOp15
 70
     1
102
RTVSPropertyOp16
 70
     1
102
RTVSPropertyOp17
 70
     1
102
RTVSPropertyOp18
 70
     1
102
RTVSPropertyOp19
 70
     1
102
RTVSPropertyOp20
 70
     1
102
RTVSPropertyOp21
 70
     1
102
RTVSPropertyOp22
 70
     1
102
RTVSPropertyOp23
 70
     1
102
RTVSPropertyOp24
 70
     1
102
RTVSPropertyOp25
 70
     1
102
RTVSPropertyOp26
 70
     1
102
RTVSPropertyOp27
 70
     1
102
RTVSPropertyOp28
 70
     1
102
RTVSPropertyOp29
 70
     1
102
RTVSPropertyOp30
 70
     1
102
RTVSPropertyOp31
 70
     1
102
RTVSPropertyOp32
 70
     1
102
RTVSPropertyOp33
 70
     1
102
RTVSPropertyOp34
 70
     1
102
RTVSPropertyOp35
 70
     1
102
RTVSPropertyOp36
 70
     1
102
RTVSPropertyOp37
 70
     1
102
RTVSPropertyOp38
 70
     1
102
RTVSPropertyOp39
 70
     1
102
RTVSPropertyOp40
 70
     1
102
RTVSPropertyOp41
 70
     1
102
RTVSPropertyOp42
 70
     1
102
RTVSPropertyOp43
 70
     1
102
RTVSPropertyOp44
 70
     1
102
RTVSPropertyOp45
 70
     1
102
RTVSPropertyOp46
 70
     1
102
RTVSPropertyOp47
 70
     1
102
RTVSPropertyOp48
 70
     1
102
RTVSPropertyOp49
 70
     1
102
RTVSPropertyOp50
 70
     1
102
RTVSPropertyOp51
 70
     0
102
RTVSPropertyOp52
 70
     0
102
RTVSPropertyOp53
 70
     1
102
RTVSPropertyOp54
 70
     1
102
RTVSPropertyOp55
 70
     1
102
RTVSPropertyOp56
 70
     1
102
RTVSPropertyOp57
 70
     1
102
RTVSPropertyOp58
 70
     1
102
RTVSPropertyOp59
 70
     1
102
RTVSPropertyOp60
 70
     1
102
RTVSPropertyOp61
 70
     1
102
RTVSPropertyOp62
 70
     1
  0
XRECORD
  5
1188
102
{ACAD_REACTORS
330
1187
102
}
330
1187
100
AcDbXrecord
280
     1
102
RTVSPost2010Prop28
280
     0
102
RTVSPost2010PropOp28
 70
     0
102
RTVSPost2010Prop29
280
     1
102
RTVSPost2010PropOp29
 70
     0
102
RTVSPost2010Prop30
280
     1
102
RTVSPost2010PropOp30
 70
     0
102
RTVSPost2010Prop31
280
     0
102
RTVSPost2010PropOp31
 70
     0
102
RTVSPost2010Prop32
280
     0
102
RTVSPost2010PropOp32
 70
     0
102
RTVSPost2010Prop33
280
     0
102
RTVSPost2010PropOp33
 70
     0
102
RTVSPost2010Prop34
280
     0
102
RTVSPost2010PropOp34
 70
     0
102
RTVSPost2010Prop35
280
     0
102
RTVSPost2010PropOp35
 70
     0
102
RTVSPost2010Prop36
280
     0
102
RTVSPost2010PropOp36
 70
     0
102
RTVSPost2010Prop37
 90
       50
102
RTVSPost2010PropOp37
 70
     0
102
RTVSPost2010Prop38
140
0.0
102
RTVSPost2010PropOp38
 70
     0
102
RTVSPost2010Prop39
140
1.0
102
RTVSPost2010PropOp39
 70
     0
102
RTVSPost2010Prop40
 90
        0
102
RTVSPost2010PropOp40
 70
     0
102
RTVSPost2010Prop41ColorIndex
 90
       18
102
RTVSPost2010Prop41ColorRGB
 90
        0
102
RTVSPost2010PropOp41
 70
     0
102
RTVSPost2010Prop42
 90
       50
102
RTVSPost2010PropOp42
 70
     0
102
RTVSPost2010Prop43
 90
        3
102
RTVSPost2010PropOp43
 70
     0
102
RTVSPost2010Prop44ColorIndex
 90
        5
102
RTVSPost2010Prop44ColorRGB
 90
      255
102
RTVSPost2010PropOp44
 70
     0
102
RTVSPost2010Prop45
280
     0
102
RTVSPost2010PropOp45
 70
     0
102
RTVSPost2010Prop46
 90
       50
102
RTVSPost2010PropOp46
 70
     0
102
RTVSPost2010Prop47
 90
       50
102
RTVSPost2010PropOp47
 70
     0
102
RTVSPost2010Prop48
 90
       50
102
RTVSPost2010PropOp48
 70
     0
102
RTVSPost2010Prop49
280
     0
102
RTVSPost2010PropOp49
 70
     0
102
RTVSPost2010Prop50
 90
       50
102
RTVSPost2010PropOp50
 70
     0
102
RTVSPost2010Prop51ColorIndex
 90
      256
102
RTVSPost2010Prop51ColorRGB
 90
-16777216
102
RTVSPost2010PropOp51
 70
     0
102
RTVSPost2010Prop52
140
1.0
102
RTVSPost2010PropOp52
 70
     0
102
RTVSPost2010Prop53
 90
        2
102
RTVSPost2010PropOp53
 70
     0
102
RTVSPost2010Prop54
  1
strokes_ogs.tif
102
RTVSPost2010PropOp54
 70
     0
102
RTVSPost2010Prop55
280
     0
102
RTVSPost2010PropOp55
 70
     0
102
RTVSPost2010Prop56
140
1.0
102
RTVSPost2010PropOp56
 70
     0
102
RTVSPost2010Prop57
140
1.0
102
RTVSPost2010PropOp57
 70
     0
102
RTVSPropertyOp0
 70
     0
102
RTVSPropertyOp1
 70
     0
102
RTVSPropertyOp2
 70
     0
102
RTVSPropertyOp3
 70
     0
102
RTVSPropertyOp4
 70
     0
102
RTVSPropertyOp5
 70
     0
102
RTVSPropertyOp6
 70
     0
102
RTVSPropertyOp7
 70
     0
102
RTVSPropertyOp8
 70
     0
102
RTVSPropertyOp9
 70
     0
102
RTVSPropertyOp10
 70
     0
102
RTVSPropertyOp11
 70
     0
102
RTVSPropertyOp12
 70
     0
102
RTVSPropertyOp13
 70
     0
102
RTVSPropertyOp14
 70
     2
102
RTVSPropertyOp15
 70
     0
102
RTVSPropertyOp16
 70
     0
102
RTVSPropertyOp17
 70
     0
102
RTVSPropertyOp18
 70
     0
102
RTVSPropertyOp19
 70
     0
102
RTVSPropertyOp20
 70
     0
102
RTVSPropertyOp21
 70
     0
102
RTVSPropertyOp22
 70
     0
102
RTVSPropertyOp23
 70
     0
102
RTVSPropertyOp24
 70
     0
102
RTVSPropertyOp25
 70
     0
102
RTVSPropertyOp26
 70
     0
102
RTVSPropertyOp27
 70
     0
102
RTVSPropertyOp28
 70
     0
102
RTVSPropertyOp29
 70
     0
102
RTVSPropertyOp30
 70
     0
102
RTVSPropertyOp31
 70
     0
102
RTVSPropertyOp32
 70
     0
102
RTVSPropertyOp33
 70
     0
102
RTVSPropertyOp34
 70
     0
102
RTVSPropertyOp35
 70
     0
102
RTVSPropertyOp36
 70
     0
102
RTVSPropertyOp37
 70
     0
102
RTVSPropertyOp38
 70
     0
102
RTVSPropertyOp39
 70
     0
102
RTVSPropertyOp40
 70
     0
102
RTVSPropertyOp41
 70
     0
102
RTVSPropertyOp42
 70
     0
102
RTVSPropertyOp43
 70
     0
102
RTVSPropertyOp44
 70
     0
102
RTVSPropertyOp45
 70
     0
102
RTVSPropertyOp46
 70
     0
102
RTVSPropertyOp47
 70
     0
102
RTVSPropertyOp48
 70
     0
102
RTVSPropertyOp49
 70
     0
102
RTVSPropertyOp50
 70
     0
102
RTVSPropertyOp51
 70
     0
102
RTVSPropertyOp52
 70
     0
102
RTVSPropertyOp53
 70
     0
102
RTVSPropertyOp54
 70
     0
102
RTVSPropertyOp55
 70
     0
102
RTVSPropertyOp56
 70
     0
102
RTVSPropertyOp57
 70
     0
102
RTVSPropertyOp58
 70
     0
102
RTVSPropertyOp59
 70
     0
102
RTVSPropertyOp60
 70
     0
102
RTVSPropertyOp61
 70
     0
102
RTVSPropertyOp62
 70
     0
  0
XRECORD
  5
1176
102
{ACAD_REACTORS
330
1175
102
}
330
1175
100
AcDbXrecord
280
     1
102
RTVSPost2010Prop28
280
     0
102
RTVSPost2010PropOp28
 70
     1
102
RTVSPost2010Prop29
280
     1
102
RTVSPost2010PropOp29
 70
     1
102
RTVSPost2010Prop30
280
     1
102
RTVSPost2010PropOp30
 70
     1
102
RTVSPost2010Prop31
280
     0
102
RTVSPost2010PropOp31
 70
     1
102
RTVSPost2010Prop32
280
     0
102
RTVSPost2010PropOp32
 70
     1
102
RTVSPost2010Prop33
280
     0
102
RTVSPost2010PropOp33
 70
     1
102
RTVSPost2010Prop34
280
     0
102
RTVSPost2010PropOp34
 70
     1
102
RTVSPost2010Prop35
280
     0
102
RTVSPost2010PropOp35
 70
     1
102
RTVSPost2010Prop36
280
     0
102
RTVSPost2010PropOp36
 70
     1
102
RTVSPost2010Prop37
 90
       50
102
RTVSPost2010PropOp37
 70
     1
102
RTVSPost2010Prop38
140
0.0
102
RTVSPost2010PropOp38
 70
     1
102
RTVSPost2010Prop39
140
1.0
102
RTVSPost2010PropOp39
 70
     1
102
RTVSPost2010Prop40
 90
        0
102
RTVSPost2010PropOp40
 70
     1
102
RTVSPost2010Prop41ColorIndex
 90
       18
102
RTVSPost2010Prop41ColorRGB
 90
        0
102
RTVSPost2010PropOp41
 70
     1
102
RTVSPost2010Prop42
 90
       50
102
RTVSPost2010PropOp42
 70
     1
102
RTVSPost2010Prop43
 90
        3
102
RTVSPost2010PropOp43
 70
     1
102
RTVSPost2010Prop44ColorIndex
 90
        5
102
RTVSPost2010Prop44ColorRGB
 90
      255
102
RTVSPost2010PropOp44
 70
     1
102
RTVSPost2010Prop45
280
     0
102
RTVSPost2010PropOp45
 70
     1
102
RTVSPost2010Prop46
 90
       50
102
RTVSPost2010PropOp46
 70
     1
102
RTVSPost2010Prop47
 90
       50
102
RTVSPost2010PropOp47
 70
     1
102
RTVSPost2010Prop48
 90
       50
102
RTVSPost2010PropOp48
 70
     1
102
RTVSPost2010Prop49
280
     0
102
RTVSPost2010PropOp49
 70
     1
102
RTVSPost2010Prop50
 90
       50
102
RTVSPost2010PropOp50
 70
     1
102
RTVSPost2010Prop51ColorIndex
 90
      256
102
RTVSPost2010Prop51ColorRGB
 90
-16777216
102
RTVSPost2010PropOp51
 70
     0
102
RTVSPost2010Prop52
140
1.0
102
RTVSPost2010PropOp52
 70
     0
102
RTVSPost2010Prop53
 90
        2
102
RTVSPost2010PropOp53
 70
     1
102
RTVSPost2010Prop54
  1
strokes_ogs.tif
102
RTVSPost2010PropOp54
 70
     1
102
RTVSPost2010Prop55
280
     0
102
RTVSPost2010PropOp55
 70
     1
102
RTVSPost2010Prop56
140
1.0
102
RTVSPost2010PropOp56
 70
     1
102
RTVSPost2010Prop57
140
1.0
102
RTVSPost2010PropOp57
 70
     1
102
RTVSPropertyOp0
 70
     1
102
RTVSPropertyOp1
 70
     1
102
RTVSPropertyOp2
 70
     1
102
RTVSPropertyOp3
 70
     1
102
RTVSPropertyOp4
 70
     1
102
RTVSPropertyOp5
 70
     1
102
RTVSPropertyOp6
 70
     1
102
RTVSPropertyOp7
 70
     1
102
RTVSPropertyOp8
 70
     1
102
RTVSPropertyOp9
 70
     1
102
RTVSPropertyOp10
 70
     1
102
RTVSPropertyOp11
 70
     1
102
RTVSPropertyOp12
 70
     1
102
RTVSPropertyOp13
 70
     1
102
RTVSPropertyOp14
 70
     1
102
RTVSPropertyOp15
 70
     1
102
RTVSPropertyOp16
 70
     1
102
RTVSPropertyOp17
 70
     1
102
RTVSPropertyOp18
 70
     1
102
RTVSPropertyOp19
 70
     1
102
RTVSPropertyOp20
 70
     1
102
RTVSPropertyOp21
 70
     1
102
RTVSPropertyOp22
 70
     1
102
RTVSPropertyOp23
 70
     1
102
RTVSPropertyOp24
 70
     1
102
RTVSPropertyOp25
 70
     1
102
RTVSPropertyOp26
 70
     1
102
RTVSPropertyOp27
 70
     1
102
RTVSPropertyOp28
 70
     1
102
RTVSPropertyOp29
 70
     1
102
RTVSPropertyOp30
 70
     1
102
RTVSPropertyOp31
 70
     1
102
RTVSPropertyOp32
 70
     1
102
RTVSPropertyOp33
 70
     1
102
RTVSPropertyOp34
 70
     1
102
RTVSPropertyOp35
 70
     1
102
RTVSPropertyOp36
 70
     1
102
RTVSPropertyOp37
 70
     1
102
RTVSPropertyOp38
 70
     1
102
RTVSPropertyOp39
 70
     1
102
RTVSPropertyOp40
 70
     1
102
RTVSPropertyOp41
 70
     1
102
RTVSPropertyOp42
 70
     1
102
RTVSPropertyOp43
 70
     1
102
RTVSPropertyOp44
 70
     1
102
RTVSPropertyOp45
 70
     1
102
RTVSPropertyOp46
 70
     1
102
RTVSPropertyOp47
 70
     1
102
RTVSPropertyOp48
 70
     1
102
RTVSPropertyOp49
 70
     1
102
RTVSPropertyOp50
 70
     1
102
RTVSPropertyOp51
 70
     0
102
RTVSPropertyOp52
 70
     0
102
RTVSPropertyOp53
 70
     1
102
RTVSPropertyOp54
 70
     1
102
RTVSPropertyOp55
 70
     1
102
RTVSPropertyOp56
 70
     1
102
RTVSPropertyOp57
 70
     1
102
RTVSPropertyOp58
 70
     1
102
RTVSPropertyOp59
 70
     1
102
RTVSPropertyOp60
 70
     1
102
RTVSPropertyOp61
 70
     1
102
RTVSPropertyOp62
 70
     1
  0
XRECORD
  5
115A
102
{ACAD_REACTORS
330
1159
102
}
330
1159
100
AcDbXrecord
280
     1
102
RTVSPost2010Prop28
280
     0
102
RTVSPost2010PropOp28
 70
     1
102
RTVSPost2010Prop29
280
     1
102
RTVSPost2010PropOp29
 70
     1
102
RTVSPost2010Prop30
280
     1
102
RTVSPost2010PropOp30
 70
     1
102
RTVSPost2010Prop31
280
     0
102
RTVSPost2010PropOp31
 70
     1
102
RTVSPost2010Prop32
280
     0
102
RTVSPost2010PropOp32
 70
     1
102
RTVSPost2010Prop33
280
     0
102
RTVSPost2010PropOp33
 70
     1
102
RTVSPost2010Prop34
280
     0
102
RTVSPost2010PropOp34
 70
     1
102
RTVSPost2010Prop35
280
     0
102
RTVSPost2010PropOp35
 70
     1
102
RTVSPost2010Prop36
280
     0
102
RTVSPost2010PropOp36
 70
     1
102
RTVSPost2010Prop37
 90
       50
102
RTVSPost2010PropOp37
 70
     1
102
RTVSPost2010Prop38
140
0.0
102
RTVSPost2010PropOp38
 70
     1
102
RTVSPost2010Prop39
140
1.0
102
RTVSPost2010PropOp39
 70
     1
102
RTVSPost2010Prop40
 90
        0
102
RTVSPost2010PropOp40
 70
     1
102
RTVSPost2010Prop41ColorIndex
 90
       18
102
RTVSPost2010Prop41ColorRGB
 90
        0
102
RTVSPost2010PropOp41
 70
     1
102
RTVSPost2010Prop42
 90
       50
102
RTVSPost2010PropOp42
 70
     1
102
RTVSPost2010Prop43
 90
        3
102
RTVSPost2010PropOp43
 70
     1
102
RTVSPost2010Prop44ColorIndex
 90
        5
102
RTVSPost2010Prop44ColorRGB
 90
      255
102
RTVSPost2010PropOp44
 70
     1
102
RTVSPost2010Prop45
280
     0
102
RTVSPost2010PropOp45
 70
     1
102
RTVSPost2010Prop46
 90
       50
102
RTVSPost2010PropOp46
 70
     1
102
RTVSPost2010Prop47
 90
       50
102
RTVSPost2010PropOp47
 70
     1
102
RTVSPost2010Prop48
 90
       50
102
RTVSPost2010PropOp48
 70
     1
102
RTVSPost2010Prop49
280
     0
102
RTVSPost2010PropOp49
 70
     1
102
RTVSPost2010Prop50
 90
       50
102
RTVSPost2010PropOp50
 70
     1
102
RTVSPost2010Prop51ColorIndex
 90
      256
102
RTVSPost2010Prop51ColorRGB
 90
-16777216
102
RTVSPost2010PropOp51
 70
     0
102
RTVSPost2010Prop52
140
1.0
102
RTVSPost2010PropOp52
 70
     0
102
RTVSPost2010Prop53
 90
        2
102
RTVSPost2010PropOp53
 70
     1
102
RTVSPost2010Prop54
  1
strokes_ogs.tif
102
RTVSPost2010PropOp54
 70
     1
102
RTVSPost2010Prop55
280
     0
102
RTVSPost2010PropOp55
 70
     1
102
RTVSPost2010Prop56
140
1.0
102
RTVSPost2010PropOp56
 70
     1
102
RTVSPost2010Prop57
140
1.0
102
RTVSPost2010PropOp57
 70
     1
102
RTVSPropertyOp0
 70
     1
102
RTVSPropertyOp1
 70
     1
102
RTVSPropertyOp2
 70
     1
102
RTVSPropertyOp3
 70
     1
102
RTVSPropertyOp4
 70
     1
102
RTVSPropertyOp5
 70
     1
102
RTVSPropertyOp6
 70
     1
102
RTVSPropertyOp7
 70
     1
102
RTVSPropertyOp8
 70
     1
102
RTVSPropertyOp9
 70
     1
102
RTVSPropertyOp10
 70
     1
102
RTVSPropertyOp11
 70
     1
102
RTVSPropertyOp12
 70
     1
102
RTVSPropertyOp13
 70
     1
102
RTVSPropertyOp14
 70
     1
102
RTVSPropertyOp15
 70
     1
102
RTVSPropertyOp16
 70
     1
102
RTVSPropertyOp17
 70
     1
102
RTVSPropertyOp18
 70
     1
102
RTVSPropertyOp19
 70
     1
102
RTVSPropertyOp20
 70
     1
102
RTVSPropertyOp21
 70
     1
102
RTVSPropertyOp22
 70
     1
102
RTVSPropertyOp23
 70
     1
102
RTVSPropertyOp24
 70
     1
102
RTVSPropertyOp25
 70
     1
102
RTVSPropertyOp26
 70
     1
102
RTVSPropertyOp27
 70
     1
102
RTVSPropertyOp28
 70
     1
102
RTVSPropertyOp29
 70
     1
102
RTVSPropertyOp30
 70
     1
102
RTVSPropertyOp31
 70
     1
102
RTVSPropertyOp32
 70
     1
102
RTVSPropertyOp33
 70
     1
102
RTVSPropertyOp34
 70
     1
102
RTVSPropertyOp35
 70
     1
102
RTVSPropertyOp36
 70
     1
102
RTVSPropertyOp37
 70
     1
102
RTVSPropertyOp38
 70
     1
102
RTVSPropertyOp39
 70
     1
102
RTVSPropertyOp40
 70
     1
102
RTVSPropertyOp41
 70
     1
102
RTVSPropertyOp42
 70
     1
102
RTVSPropertyOp43
 70
     1
102
RTVSPropertyOp44
 70
     1
102
RTVSPropertyOp45
 70
     1
102
RTVSPropertyOp46
 70
     1
102
RTVSPropertyOp47
 70
     1
102
RTVSPropertyOp48
 70
     1
102
RTVSPropertyOp49
 70
     1
102
RTVSPropertyOp50
 70
     1
102
RTVSPropertyOp51
 70
     0
102
RTVSPropertyOp52
 70
     0
102
RTVSPropertyOp53
 70
     1
102
RTVSPropertyOp54
 70
     1
102
RTVSPropertyOp55
 70
     1
102
RTVSPropertyOp56
 70
     1
102
RTVSPropertyOp57
 70
     1
102
RTVSPropertyOp58
 70
     1
102
RTVSPropertyOp59
 70
     1
102
RTVSPropertyOp60
 70
     1
102
RTVSPropertyOp61
 70
     1
102
RTVSPropertyOp62
 70
     1
  0
XRECORD
  5
115C
102
{ACAD_REACTORS
330
115B
102
}
330
115B
100
AcDbXrecord
280
     1
102
RTVSPost2010Prop28
280
     0
102
RTVSPost2010PropOp28
 70
     1
102
RTVSPost2010Prop29
280
     1
102
RTVSPost2010PropOp29
 70
     1
102
RTVSPost2010Prop30
280
     1
102
RTVSPost2010PropOp30
 70
     1
102
RTVSPost2010Prop31
280
     0
102
RTVSPost2010PropOp31
 70
     1
102
RTVSPost2010Prop32
280
     0
102
RTVSPost2010PropOp32
 70
     1
102
RTVSPost2010Prop33
280
     0
102
RTVSPost2010PropOp33
 70
     1
102
RTVSPost2010Prop34
280
     0
102
RTVSPost2010PropOp34
 70
     1
102
RTVSPost2010Prop35
280
     0
102
RTVSPost2010PropOp35
 70
     1
102
RTVSPost2010Prop36
280
     0
102
RTVSPost2010PropOp36
 70
     1
102
RTVSPost2010Prop37
 90
       50
102
RTVSPost2010PropOp37
 70
     1
102
RTVSPost2010Prop38
140
0.0
102
RTVSPost2010PropOp38
 70
     1
102
RTVSPost2010Prop39
140
1.0
102
RTVSPost2010PropOp39
 70
     1
102
RTVSPost2010Prop40
 90
        0
102
RTVSPost2010PropOp40
 70
     1
102
RTVSPost2010Prop41ColorIndex
 90
       18
102
RTVSPost2010Prop41ColorRGB
 90
        0
102
RTVSPost2010PropOp41
 70
     1
102
RTVSPost2010Prop42
 90
       50
102
RTVSPost2010PropOp42
 70
     1
102
RTVSPost2010Prop43
 90
        3
102
RTVSPost2010PropOp43
 70
     1
102
RTVSPost2010Prop44ColorIndex
 90
        5
102
RTVSPost2010Prop44ColorRGB
 90
      255
102
RTVSPost2010PropOp44
 70
     1
102
RTVSPost2010Prop45
280
     0
102
RTVSPost2010PropOp45
 70
     1
102
RTVSPost2010Prop46
 90
       50
102
RTVSPost2010PropOp46
 70
     1
102
RTVSPost2010Prop47
 90
       50
102
RTVSPost2010PropOp47
 70
     1
102
RTVSPost2010Prop48
 90
       50
102
RTVSPost2010PropOp48
 70
     1
102
RTVSPost2010Prop49
280
     0
102
RTVSPost2010PropOp49
 70
     1
102
RTVSPost2010Prop50
 90
       50
102
RTVSPost2010PropOp50
 70
     1
102
RTVSPost2010Prop51ColorIndex
 90
      256
102
RTVSPost2010Prop51ColorRGB
 90
-16777216
102
RTVSPost2010PropOp51
 70
     0
102
RTVSPost2010Prop52
140
1.0
102
RTVSPost2010PropOp52
 70
     0
102
RTVSPost2010Prop53
 90
        2
102
RTVSPost2010PropOp53
 70
     1
102
RTVSPost2010Prop54
  1
strokes_ogs.tif
102
RTVSPost2010PropOp54
 70
     1
102
RTVSPost2010Prop55
280
     0
102
RTVSPost2010PropOp55
 70
     1
102
RTVSPost2010Prop56
140
1.0
102
RTVSPost2010PropOp56
 70
     1
102
RTVSPost2010Prop57
140
1.0
102
RTVSPost2010PropOp57
 70
     1
102
RTVSPropertyOp0
 70
     1
102
RTVSPropertyOp1
 70
     1
102
RTVSPropertyOp2
 70
     1
102
RTVSPropertyOp3
 70
     1
102
RTVSPropertyOp4
 70
     1
102
RTVSPropertyOp5
 70
     1
102
RTVSPropertyOp6
 70
     1
102
RTVSPropertyOp7
 70
     1
102
RTVSPropertyOp8
 70
     1
102
RTVSPropertyOp9
 70
     1
102
RTVSPropertyOp10
 70
     1
102
RTVSPropertyOp11
 70
     1
102
RTVSPropertyOp12
 70
     1
102
RTVSPropertyOp13
 70
     1
102
RTVSPropertyOp14
 70
     1
102
RTVSPropertyOp15
 70
     1
102
RTVSPropertyOp16
 70
     1
102
RTVSPropertyOp17
 70
     1
102
RTVSPropertyOp18
 70
     1
102
RTVSPropertyOp19
 70
     1
102
RTVSPropertyOp20
 70
     1
102
RTVSPropertyOp21
 70
     1
102
RTVSPropertyOp22
 70
     1
102
RTVSPropertyOp23
 70
     1
102
RTVSPropertyOp24
 70
     1
102
RTVSPropertyOp25
 70
     1
102
RTVSPropertyOp26
 70
     1
102
RTVSPropertyOp27
 70
     1
102
RTVSPropertyOp28
 70
     1
102
RTVSPropertyOp29
 70
     1
102
RTVSPropertyOp30
 70
     1
102
RTVSPropertyOp31
 70
     1
102
RTVSPropertyOp32
 70
     1
102
RTVSPropertyOp33
 70
     1
102
RTVSPropertyOp34
 70
     1
102
RTVSPropertyOp35
 70
     1
102
RTVSPropertyOp36
 70
     1
102
RTVSPropertyOp37
 70
     1
102
RTVSPropertyOp38
 70
     1
102
RTVSPropertyOp39
 70
     1
102
RTVSPropertyOp40
 70
     1
102
RTVSPropertyOp41
 70
     1
102
RTVSPropertyOp42
 70
     1
102
RTVSPropertyOp43
 70
     1
102
RTVSPropertyOp44
 70
     1
102
RTVSPropertyOp45
 70
     1
102
RTVSPropertyOp46
 70
     1
102
RTVSPropertyOp47
 70
     1
102
RTVSPropertyOp48
 70
     1
102
RTVSPropertyOp49
 70
     1
102
RTVSPropertyOp50
 70
     1
102
RTVSPropertyOp51
 70
     0
102
RTVSPropertyOp52
 70
     0
102
RTVSPropertyOp53
 70
     1
102
RTVSPropertyOp54
 70
     1
102
RTVSPropertyOp55
 70
     1
102
RTVSPropertyOp56
 70
     1
102
RTVSPropertyOp57
 70
     1
102
RTVSPropertyOp58
 70
     1
102
RTVSPropertyOp59
 70
     1
102
RTVSPropertyOp60
 70
     1
102
RTVSPropertyOp61
 70
     1
102
RTVSPropertyOp62
 70
     1
  0
XRECORD
  5
115E
102
{ACAD_REACTORS
330
115D
102
}
330
115D
100
AcDbXrecord
280
     1
102
RTVSPost2010Prop28
280
     0
102
RTVSPost2010PropOp28
 70
     1
102
RTVSPost2010Prop29
280
     1
102
RTVSPost2010PropOp29
 70
     1
102
RTVSPost2010Prop30
280
     1
102
RTVSPost2010PropOp30
 70
     1
102
RTVSPost2010Prop31
280
     0
102
RTVSPost2010PropOp31
 70
     1
102
RTVSPost2010Prop32
280
     0
102
RTVSPost2010PropOp32
 70
     1
102
RTVSPost2010Prop33
280
     0
102
RTVSPost2010PropOp33
 70
     1
102
RTVSPost2010Prop34
280
     0
102
RTVSPost2010PropOp34
 70
     1
102
RTVSPost2010Prop35
280
     0
102
RTVSPost2010PropOp35
 70
     1
102
RTVSPost2010Prop36
280
     0
102
RTVSPost2010PropOp36
 70
     1
102
RTVSPost2010Prop37
 90
       50
102
RTVSPost2010PropOp37
 70
     1
102
RTVSPost2010Prop38
140
0.0
102
RTVSPost2010PropOp38
 70
     1
102
RTVSPost2010Prop39
140
1.0
102
RTVSPost2010PropOp39
 70
     1
102
RTVSPost2010Prop40
 90
        0
102
RTVSPost2010PropOp40
 70
     1
102
RTVSPost2010Prop41ColorIndex
 90
       18
102
RTVSPost2010Prop41ColorRGB
 90
        0
102
RTVSPost2010PropOp41
 70
     1
102
RTVSPost2010Prop42
 90
       50
102
RTVSPost2010PropOp42
 70
     1
102
RTVSPost2010Prop43
 90
        3
102
RTVSPost2010PropOp43
 70
     1
102
RTVSPost2010Prop44ColorIndex
 90
        5
102
RTVSPost2010Prop44ColorRGB
 90
      255
102
RTVSPost2010PropOp44
 70
     1
102
RTVSPost2010Prop45
280
     0
102
RTVSPost2010PropOp45
 70
     1
102
RTVSPost2010Prop46
 90
       50
102
RTVSPost2010PropOp46
 70
     1
102
RTVSPost2010Prop47
 90
       50
102
RTVSPost2010PropOp47
 70
     1
102
RTVSPost2010Prop48
 90
       50
102
RTVSPost2010PropOp48
 70
     1
102
RTVSPost2010Prop49
280
     0
102
RTVSPost2010PropOp49
 70
     1
102
RTVSPost2010Prop50
 90
       50
102
RTVSPost2010PropOp50
 70
     1
102
RTVSPost2010Prop51ColorIndex
 90
      256
102
RTVSPost2010Prop51ColorRGB
 90
-16777216
102
RTVSPost2010PropOp51
 70
     0
102
RTVSPost2010Prop52
140
1.0
102
RTVSPost2010PropOp52
 70
     0
102
RTVSPost2010Prop53
 90
        2
102
RTVSPost2010PropOp53
 70
     1
102
RTVSPost2010Prop54
  1
strokes_ogs.tif
102
RTVSPost2010PropOp54
 70
     1
102
RTVSPost2010Prop55
280
     0
102
RTVSPost2010PropOp55
 70
     1
102
RTVSPost2010Prop56
140
1.0
102
RTVSPost2010PropOp56
 70
     1
102
RTVSPost2010Prop57
140
1.0
102
RTVSPost2010PropOp57
 70
     1
102
RTVSPropertyOp0
 70
     1
102
RTVSPropertyOp1
 70
     1
102
RTVSPropertyOp2
 70
     1
102
RTVSPropertyOp3
 70
     1
102
RTVSPropertyOp4
 70
     1
102
RTVSPropertyOp5
 70
     1
102
RTVSPropertyOp6
 70
     1
102
RTVSPropertyOp7
 70
     1
102
RTVSPropertyOp8
 70
     1
102
RTVSPropertyOp9
 70
     1
102
RTVSPropertyOp10
 70
     1
102
RTVSPropertyOp11
 70
     1
102
RTVSPropertyOp12
 70
     1
102
RTVSPropertyOp13
 70
     1
102
RTVSPropertyOp14
 70
     1
102
RTVSPropertyOp15
 70
     1
102
RTVSPropertyOp16
 70
     1
102
RTVSPropertyOp17
 70
     1
102
RTVSPropertyOp18
 70
     1
102
RTVSPropertyOp19
 70
     1
102
RTVSPropertyOp20
 70
     1
102
RTVSPropertyOp21
 70
     1
102
RTVSPropertyOp22
 70
     1
102
RTVSPropertyOp23
 70
     1
102
RTVSPropertyOp24
 70
     1
102
RTVSPropertyOp25
 70
     1
102
RTVSPropertyOp26
 70
     1
102
RTVSPropertyOp27
 70
     1
102
RTVSPropertyOp28
 70
     1
102
RTVSPropertyOp29
 70
     1
102
RTVSPropertyOp30
 70
     1
102
RTVSPropertyOp31
 70
     1
102
RTVSPropertyOp32
 70
     1
102
RTVSPropertyOp33
 70
     1
102
RTVSPropertyOp34
 70
     1
102
RTVSPropertyOp35
 70
     1
102
RTVSPropertyOp36
 70
     1
102
RTVSPropertyOp37
 70
     1
102
RTVSPropertyOp38
 70
     1
102
RTVSPropertyOp39
 70
     1
102
RTVSPropertyOp40
 70
     1
102
RTVSPropertyOp41
 70
     1
102
RTVSPropertyOp42
 70
     1
102
RTVSPropertyOp43
 70
     1
102
RTVSPropertyOp44
 70
     1
102
RTVSPropertyOp45
 70
     1
102
RTVSPropertyOp46
 70
     1
102
RTVSPropertyOp47
 70
     1
102
RTVSPropertyOp48
 70
     1
102
RTVSPropertyOp49
 70
     1
102
RTVSPropertyOp50
 70
     1
102
RTVSPropertyOp51
 70
     0
102
RTVSPropertyOp52
 70
     0
102
RTVSPropertyOp53
 70
     1
102
RTVSPropertyOp54
 70
     1
102
RTVSPropertyOp55
 70
     1
102
RTVSPropertyOp56
 70
     1
102
RTVSPropertyOp57
 70
     1
102
RTVSPropertyOp58
 70
     1
102
RTVSPropertyOp59
 70
     1
102
RTVSPropertyOp60
 70
     1
102
RTVSPropertyOp61
 70
     1
102
RTVSPropertyOp62
 70
     1
  0
XRECORD
  5
1160
102
{ACAD_REACTORS
330
115F
102
}
330
115F
100
AcDbXrecord
280
     1
102
RTVSPost2010Prop28
280
     0
102
RTVSPost2010PropOp28
 70
     1
102
RTVSPost2010Prop29
280
     1
102
RTVSPost2010PropOp29
 70
     1
102
RTVSPost2010Prop30
280
     1
102
RTVSPost2010PropOp30
 70
     1
102
RTVSPost2010Prop31
280
     0
102
RTVSPost2010PropOp31
 70
     1
102
RTVSPost2010Prop32
280
     0
102
RTVSPost2010PropOp32
 70
     1
102
RTVSPost2010Prop33
280
     0
102
RTVSPost2010PropOp33
 70
     1
102
RTVSPost2010Prop34
280
     0
102
RTVSPost2010PropOp34
 70
     1
102
RTVSPost2010Prop35
280
     0
102
RTVSPost2010PropOp35
 70
     1
102
RTVSPost2010Prop36
280
     0
102
RTVSPost2010PropOp36
 70
     1
102
RTVSPost2010Prop37
 90
       50
102
RTVSPost2010PropOp37
 70
     1
102
RTVSPost2010Prop38
140
0.0
102
RTVSPost2010PropOp38
 70
     1
102
RTVSPost2010Prop39
140
1.0
102
RTVSPost2010PropOp39
 70
     1
102
RTVSPost2010Prop40
 90
        0
102
RTVSPost2010PropOp40
 70
     1
102
RTVSPost2010Prop41ColorIndex
 90
       18
102
RTVSPost2010Prop41ColorRGB
 90
        0
102
RTVSPost2010PropOp41
 70
     1
102
RTVSPost2010Prop42
 90
       50
102
RTVSPost2010PropOp42
 70
     1
102
RTVSPost2010Prop43
 90
        3
102
RTVSPost2010PropOp43
 70
     1
102
RTVSPost2010Prop44ColorIndex
 90
        5
102
RTVSPost2010Prop44ColorRGB
 90
      255
102
RTVSPost2010PropOp44
 70
     1
102
RTVSPost2010Prop45
280
     0
102
RTVSPost2010PropOp45
 70
     1
102
RTVSPost2010Prop46
 90
       50
102
RTVSPost2010PropOp46
 70
     1
102
RTVSPost2010Prop47
 90
       50
102
RTVSPost2010PropOp47
 70
     1
102
RTVSPost2010Prop48
 90
       50
102
RTVSPost2010PropOp48
 70
     1
102
RTVSPost2010Prop49
280
     0
102
RTVSPost2010PropOp49
 70
     1
102
RTVSPost2010Prop50
 90
       50
102
RTVSPost2010PropOp50
 70
     1
102
RTVSPost2010Prop51ColorIndex
 90
      256
102
RTVSPost2010Prop51ColorRGB
 90
-16777216
102
RTVSPost2010PropOp51
 70
     0
102
RTVSPost2010Prop52
140
1.0
102
RTVSPost2010PropOp52
 70
     0
102
RTVSPost2010Prop53
 90
        2
102
RTVSPost2010PropOp53
 70
     1
102
RTVSPost2010Prop54
  1
strokes_ogs.tif
102
RTVSPost2010PropOp54
 70
     1
102
RTVSPost2010Prop55
280
     0
102
RTVSPost2010PropOp55
 70
     1
102
RTVSPost2010Prop56
140
1.0
102
RTVSPost2010PropOp56
 70
     1
102
RTVSPost2010Prop57
140
1.0
102
RTVSPost2010PropOp57
 70
     1
102
RTVSPropertyOp0
 70
     1
102
RTVSPropertyOp1
 70
     1
102
RTVSPropertyOp2
 70
     1
102
RTVSPropertyOp3
 70
     1
102
RTVSPropertyOp4
 70
     1
102
RTVSPropertyOp5
 70
     1
102
RTVSPropertyOp6
 70
     1
102
RTVSPropertyOp7
 70
     1
102
RTVSPropertyOp8
 70
     1
102
RTVSPropertyOp9
 70
     1
102
RTVSPropertyOp10
 70
     1
102
RTVSPropertyOp11
 70
     1
102
RTVSPropertyOp12
 70
     1
102
RTVSPropertyOp13
 70
     1
102
RTVSPropertyOp14
 70
     1
102
RTVSPropertyOp15
 70
     1
102
RTVSPropertyOp16
 70
     1
102
RTVSPropertyOp17
 70
     1
102
RTVSPropertyOp18
 70
     1
102
RTVSPropertyOp19
 70
     1
102
RTVSPropertyOp20
 70
     1
102
RTVSPropertyOp21
 70
     1
102
RTVSPropertyOp22
 70
     1
102
RTVSPropertyOp23
 70
     1
102
RTVSPropertyOp24
 70
     1
102
RTVSPropertyOp25
 70
     1
102
RTVSPropertyOp26
 70
     1
102
RTVSPropertyOp27
 70
     1
102
RTVSPropertyOp28
 70
     1
102
RTVSPropertyOp29
 70
     1
102
RTVSPropertyOp30
 70
     1
102
RTVSPropertyOp31
 70
     1
102
RTVSPropertyOp32
 70
     1
102
RTVSPropertyOp33
 70
     1
102
RTVSPropertyOp34
 70
     1
102
RTVSPropertyOp35
 70
     1
102
RTVSPropertyOp36
 70
     1
102
RTVSPropertyOp37
 70
     1
102
RTVSPropertyOp38
 70
     1
102
RTVSPropertyOp39
 70
     1
102
RTVSPropertyOp40
 70
     1
102
RTVSPropertyOp41
 70
     1
102
RTVSPropertyOp42
 70
     1
102
RTVSPropertyOp43
 70
     1
102
RTVSPropertyOp44
 70
     1
102
RTVSPropertyOp45
 70
     1
102
RTVSPropertyOp46
 70
     1
102
RTVSPropertyOp47
 70
     1
102
RTVSPropertyOp48
 70
     1
102
RTVSPropertyOp49
 70
     1
102
RTVSPropertyOp50
 70
     1
102
RTVSPropertyOp51
 70
     0
102
RTVSPropertyOp52
 70
     0
102
RTVSPropertyOp53
 70
     1
102
RTVSPropertyOp54
 70
     1
102
RTVSPropertyOp55
 70
     1
102
RTVSPropertyOp56
 70
     1
102
RTVSPropertyOp57
 70
     1
102
RTVSPropertyOp58
 70
     1
102
RTVSPropertyOp59
 70
     1
102
RTVSPropertyOp60
 70
     1
102
RTVSPropertyOp61
 70
     1
102
RTVSPropertyOp62
 70
     1
  0
XRECORD
  5
1168
102
{ACAD_REACTORS
330
1167
102
}
330
1167
100
AcDbXrecord
280
     1
102
RTVSPost2010Prop28
280
     0
102
RTVSPost2010PropOp28
 70
     1
102
RTVSPost2010Prop29
280
     1
102
RTVSPost2010PropOp29
 70
     1
102
RTVSPost2010Prop30
280
     1
102
RTVSPost2010PropOp30
 70
     1
102
RTVSPost2010Prop31
280
     0
102
RTVSPost2010PropOp31
 70
     1
102
RTVSPost2010Prop32
280
     0
102
RTVSPost2010PropOp32
 70
     1
102
RTVSPost2010Prop33
280
     0
102
RTVSPost2010PropOp33
 70
     1
102
RTVSPost2010Prop34
280
     0
102
RTVSPost2010PropOp34
 70
     1
102
RTVSPost2010Prop35
280
     0
102
RTVSPost2010PropOp35
 70
     1
102
RTVSPost2010Prop36
280
     0
102
RTVSPost2010PropOp36
 70
     1
102
RTVSPost2010Prop37
 90
       50
102
RTVSPost2010PropOp37
 70
     1
102
RTVSPost2010Prop38
140
0.0
102
RTVSPost2010PropOp38
 70
     1
102
RTVSPost2010Prop39
140
1.0
102
RTVSPost2010PropOp39
 70
     1
102
RTVSPost2010Prop40
 90
        0
102
RTVSPost2010PropOp40
 70
     1
102
RTVSPost2010Prop41ColorIndex
 90
       18
102
RTVSPost2010Prop41ColorRGB
 90
        0
102
RTVSPost2010PropOp41
 70
     1
102
RTVSPost2010Prop42
 90
       50
102
RTVSPost2010PropOp42
 70
     1
102
RTVSPost2010Prop43
 90
        3
102
RTVSPost2010PropOp43
 70
     1
102
RTVSPost2010Prop44ColorIndex
 90
        5
102
RTVSPost2010Prop44ColorRGB
 90
      255
102
RTVSPost2010PropOp44
 70
     1
102
RTVSPost2010Prop45
280
     0
102
RTVSPost2010PropOp45
 70
     1
102
RTVSPost2010Prop46
 90
       50
102
RTVSPost2010PropOp46
 70
     1
102
RTVSPost2010Prop47
 90
       50
102
RTVSPost2010PropOp47
 70
     1
102
RTVSPost2010Prop48
 90
       50
102
RTVSPost2010PropOp48
 70
     1
102
RTVSPost2010Prop49
280
     0
102
RTVSPost2010PropOp49
 70
     1
102
RTVSPost2010Prop50
 90
       50
102
RTVSPost2010PropOp50
 70
     1
102
RTVSPost2010Prop51ColorIndex
 90
      256
102
RTVSPost2010Prop51ColorRGB
 90
-16777216
102
RTVSPost2010PropOp51
 70
     0
102
RTVSPost2010Prop52
140
1.0
102
RTVSPost2010PropOp52
 70
     0
102
RTVSPost2010Prop53
 90
        2
102
RTVSPost2010PropOp53
 70
     1
102
RTVSPost2010Prop54
  1
strokes_ogs.tif
102
RTVSPost2010PropOp54
 70
     1
102
RTVSPost2010Prop55
280
     0
102
RTVSPost2010PropOp55
 70
     1
102
RTVSPost2010Prop56
140
1.0
102
RTVSPost2010PropOp56
 70
     1
102
RTVSPost2010Prop57
140
1.0
102
RTVSPost2010PropOp57
 70
     1
102
RTVSPropertyOp0
 70
     1
102
RTVSPropertyOp1
 70
     1
102
RTVSPropertyOp2
 70
     1
102
RTVSPropertyOp3
 70
     1
102
RTVSPropertyOp4
 70
     1
102
RTVSPropertyOp5
 70
     1
102
RTVSPropertyOp6
 70
     1
102
RTVSPropertyOp7
 70
     1
102
RTVSPropertyOp8
 70
     1
102
RTVSPropertyOp9
 70
     1
102
RTVSPropertyOp10
 70
     1
102
RTVSPropertyOp11
 70
     1
102
RTVSPropertyOp12
 70
     1
102
RTVSPropertyOp13
 70
     1
102
RTVSPropertyOp14
 70
     1
102
RTVSPropertyOp15
 70
     1
102
RTVSPropertyOp16
 70
     1
102
RTVSPropertyOp17
 70
     1
102
RTVSPropertyOp18
 70
     1
102
RTVSPropertyOp19
 70
     1
102
RTVSPropertyOp20
 70
     1
102
RTVSPropertyOp21
 70
     1
102
RTVSPropertyOp22
 70
     1
102
RTVSPropertyOp23
 70
     1
102
RTVSPropertyOp24
 70
     1
102
RTVSPropertyOp25
 70
     1
102
RTVSPropertyOp26
 70
     1
102
RTVSPropertyOp27
 70
     1
102
RTVSPropertyOp28
 70
     1
102
RTVSPropertyOp29
 70
     1
102
RTVSPropertyOp30
 70
     1
102
RTVSPropertyOp31
 70
     1
102
RTVSPropertyOp32
 70
     1
102
RTVSPropertyOp33
 70
     1
102
RTVSPropertyOp34
 70
     1
102
RTVSPropertyOp35
 70
     1
102
RTVSPropertyOp36
 70
     1
102
RTVSPropertyOp37
 70
     1
102
RTVSPropertyOp38
 70
     1
102
RTVSPropertyOp39
 70
     1
102
RTVSPropertyOp40
 70
     1
102
RTVSPropertyOp41
 70
     1
102
RTVSPropertyOp42
 70
     1
102
RTVSPropertyOp43
 70
     1
102
RTVSPropertyOp44
 70
     1
102
RTVSPropertyOp45
 70
     1
102
RTVSPropertyOp46
 70
     1
102
RTVSPropertyOp47
 70
     1
102
RTVSPropertyOp48
 70
     1
102
RTVSPropertyOp49
 70
     1
102
RTVSPropertyOp50
 70
     1
102
RTVSPropertyOp51
 70
     0
102
RTVSPropertyOp52
 70
     0
102
RTVSPropertyOp53
 70
     1
102
RTVSPropertyOp54
 70
     1
102
RTVSPropertyOp55
 70
     1
102
RTVSPropertyOp56
 70
     1
102
RTVSPropertyOp57
 70
     1
102
RTVSPropertyOp58
 70
     1
102
RTVSPropertyOp59
 70
     1
102
RTVSPropertyOp60
 70
     1
102
RTVSPropertyOp61
 70
     1
102
RTVSPropertyOp62
 70
     1
  0
XRECORD
  5
1184
102
{ACAD_REACTORS
330
1183
102
}
330
1183
100
AcDbXrecord
280
     1
102
RTVSPost2010Prop28
280
     0
102
RTVSPost2010PropOp28
 70
     0
102
RTVSPost2010Prop29
280
     1
102
RTVSPost2010PropOp29
 70
     0
102
RTVSPost2010Prop30
280
     1
102
RTVSPost2010PropOp30
 70
     0
102
RTVSPost2010Prop31
280
     0
102
RTVSPost2010PropOp31
 70
     0
102
RTVSPost2010Prop32
280
     0
102
RTVSPost2010PropOp32
 70
     0
102
RTVSPost2010Prop33
280
     0
102
RTVSPost2010PropOp33
 70
     0
102
RTVSPost2010Prop34
280
     0
102
RTVSPost2010PropOp34
 70
     0
102
RTVSPost2010Prop35
280
     0
102
RTVSPost2010PropOp35
 70
     0
102
RTVSPost2010Prop36
280
     0
102
RTVSPost2010PropOp36
 70
     0
102
RTVSPost2010Prop37
 90
       50
102
RTVSPost2010PropOp37
 70
     0
102
RTVSPost2010Prop38
140
0.0
102
RTVSPost2010PropOp38
 70
     0
102
RTVSPost2010Prop39
140
1.0
102
RTVSPost2010PropOp39
 70
     0
102
RTVSPost2010Prop40
 90
        0
102
RTVSPost2010PropOp40
 70
     0
102
RTVSPost2010Prop41ColorIndex
 90
       18
102
RTVSPost2010Prop41ColorRGB
 90
        0
102
RTVSPost2010PropOp41
 70
     0
102
RTVSPost2010Prop42
 90
       50
102
RTVSPost2010PropOp42
 70
     0
102
RTVSPost2010Prop43
 90
        3
102
RTVSPost2010PropOp43
 70
     0
102
RTVSPost2010Prop44ColorIndex
 90
        5
102
RTVSPost2010Prop44ColorRGB
 90
      255
102
RTVSPost2010PropOp44
 70
     0
102
RTVSPost2010Prop45
280
     0
102
RTVSPost2010PropOp45
 70
     0
102
RTVSPost2010Prop46
 90
       50
102
RTVSPost2010PropOp46
 70
     0
102
RTVSPost2010Prop47
 90
       50
102
RTVSPost2010PropOp47
 70
     0
102
RTVSPost2010Prop48
 90
       50
102
RTVSPost2010PropOp48
 70
     0
102
RTVSPost2010Prop49
280
     0
102
RTVSPost2010PropOp49
 70
     0
102
RTVSPost2010Prop50
 90
       50
102
RTVSPost2010PropOp50
 70
     0
102
RTVSPost2010Prop51ColorIndex
 90
      256
102
RTVSPost2010Prop51ColorRGB
 90
-16777216
102
RTVSPost2010PropOp51
 70
     0
102
RTVSPost2010Prop52
140
1.0
102
RTVSPost2010PropOp52
 70
     0
102
RTVSPost2010Prop53
 90
        2
102
RTVSPost2010PropOp53
 70
     0
102
RTVSPost2010Prop54
  1
strokes_ogs.tif
102
RTVSPost2010PropOp54
 70
     0
102
RTVSPost2010Prop55
280
     0
102
RTVSPost2010PropOp55
 70
     0
102
RTVSPost2010Prop56
140
1.0
102
RTVSPost2010PropOp56
 70
     0
102
RTVSPost2010Prop57
140
1.0
102
RTVSPost2010PropOp57
 70
     0
102
RTVSPropertyOp0
 70
     0
102
RTVSPropertyOp1
 70
     0
102
RTVSPropertyOp2
 70
     0
102
RTVSPropertyOp3
 70
     0
102
RTVSPropertyOp4
 70
     0
102
RTVSPropertyOp5
 70
     0
102
RTVSPropertyOp6
 70
     0
102
RTVSPropertyOp7
 70
     0
102
RTVSPropertyOp8
 70
     0
102
RTVSPropertyOp9
 70
     0
102
RTVSPropertyOp10
 70
     0
102
RTVSPropertyOp11
 70
     0
102
RTVSPropertyOp12
 70
     0
102
RTVSPropertyOp13
 70
     0
102
RTVSPropertyOp14
 70
     2
102
RTVSPropertyOp15
 70
     0
102
RTVSPropertyOp16
 70
     0
102
RTVSPropertyOp17
 70
     0
102
RTVSPropertyOp18
 70
     0
102
RTVSPropertyOp19
 70
     0
102
RTVSPropertyOp20
 70
     0
102
RTVSPropertyOp21
 70
     0
102
RTVSPropertyOp22
 70
     0
102
RTVSPropertyOp23
 70
     0
102
RTVSPropertyOp24
 70
     0
102
RTVSPropertyOp25
 70
     0
102
RTVSPropertyOp26
 70
     0
102
RTVSPropertyOp27
 70
     0
102
RTVSPropertyOp28
 70
     0
102
RTVSPropertyOp29
 70
     0
102
RTVSPropertyOp30
 70
     0
102
RTVSPropertyOp31
 70
     0
102
RTVSPropertyOp32
 70
     0
102
RTVSPropertyOp33
 70
     0
102
RTVSPropertyOp34
 70
     0
102
RTVSPropertyOp35
 70
     0
102
RTVSPropertyOp36
 70
     0
102
RTVSPropertyOp37
 70
     0
102
RTVSPropertyOp38
 70
     0
102
RTVSPropertyOp39
 70
     0
102
RTVSPropertyOp40
 70
     0
102
RTVSPropertyOp41
 70
     0
102
RTVSPropertyOp42
 70
     0
102
RTVSPropertyOp43
 70
     0
102
RTVSPropertyOp44
 70
     0
102
RTVSPropertyOp45
 70
     0
102
RTVSPropertyOp46
 70
     0
102
RTVSPropertyOp47
 70
     0
102
RTVSPropertyOp48
 70
     0
102
RTVSPropertyOp49
 70
     0
102
RTVSPropertyOp50
 70
     0
102
RTVSPropertyOp51
 70
     0
102
RTVSPropertyOp52
 70
     0
102
RTVSPropertyOp53
 70
     0
102
RTVSPropertyOp54
 70
     0
102
RTVSPropertyOp55
 70
     0
102
RTVSPropertyOp56
 70
     0
102
RTVSPropertyOp57
 70
     0
102
RTVSPropertyOp58
 70
     0
102
RTVSPropertyOp59
 70
     0
102
RTVSPropertyOp60
 70
     0
102
RTVSPropertyOp61
 70
     0
102
RTVSPropertyOp62
 70
     0
  0
XRECORD
  5
1174
102
{ACAD_REACTORS
330
1173
102
}
330
1173
100
AcDbXrecord
280
     1
102
RTVSPost2010Prop28
280
     0
102
RTVSPost2010PropOp28
 70
     1
102
RTVSPost2010Prop29
280
     1
102
RTVSPost2010PropOp29
 70
     1
102
RTVSPost2010Prop30
280
     1
102
RTVSPost2010PropOp30
 70
     1
102
RTVSPost2010Prop31
280
     0
102
RTVSPost2010PropOp31
 70
     1
102
RTVSPost2010Prop32
280
     0
102
RTVSPost2010PropOp32
 70
     1
102
RTVSPost2010Prop33
280
     0
102
RTVSPost2010PropOp33
 70
     1
102
RTVSPost2010Prop34
280
     0
102
RTVSPost2010PropOp34
 70
     1
102
RTVSPost2010Prop35
280
     0
102
RTVSPost2010PropOp35
 70
     1
102
RTVSPost2010Prop36
280
     0
102
RTVSPost2010PropOp36
 70
     1
102
RTVSPost2010Prop37
 90
       50
102
RTVSPost2010PropOp37
 70
     1
102
RTVSPost2010Prop38
140
0.0
102
RTVSPost2010PropOp38
 70
     1
102
RTVSPost2010Prop39
140
1.0
102
RTVSPost2010PropOp39
 70
     1
102
RTVSPost2010Prop40
 90
        0
102
RTVSPost2010PropOp40
 70
     1
102
RTVSPost2010Prop41ColorIndex
 90
       18
102
RTVSPost2010Prop41ColorRGB
 90
        0
102
RTVSPost2010PropOp41
 70
     1
102
RTVSPost2010Prop42
 90
       50
102
RTVSPost2010PropOp42
 70
     1
102
RTVSPost2010Prop43
 90
        3
102
RTVSPost2010PropOp43
 70
     1
102
RTVSPost2010Prop44ColorIndex
 90
        5
102
RTVSPost2010Prop44ColorRGB
 90
      255
102
RTVSPost2010PropOp44
 70
     1
102
RTVSPost2010Prop45
280
     0
102
RTVSPost2010PropOp45
 70
     1
102
RTVSPost2010Prop46
 90
       50
102
RTVSPost2010PropOp46
 70
     1
102
RTVSPost2010Prop47
 90
       50
102
RTVSPost2010PropOp47
 70
     1
102
RTVSPost2010Prop48
 90
       50
102
RTVSPost2010PropOp48
 70
     1
102
RTVSPost2010Prop49
280
     0
102
RTVSPost2010PropOp49
 70
     1
102
RTVSPost2010Prop50
 90
       50
102
RTVSPost2010PropOp50
 70
     1
102
RTVSPost2010Prop51ColorIndex
 90
      256
102
RTVSPost2010Prop51ColorRGB
 90
-16777216
102
RTVSPost2010PropOp51
 70
     0
102
RTVSPost2010Prop52
140
1.0
102
RTVSPost2010PropOp52
 70
     0
102
RTVSPost2010Prop53
 90
        2
102
RTVSPost2010PropOp53
 70
     1
102
RTVSPost2010Prop54
  1
strokes_ogs.tif
102
RTVSPost2010PropOp54
 70
     1
102
RTVSPost2010Prop55
280
     0
102
RTVSPost2010PropOp55
 70
     1
102
RTVSPost2010Prop56
140
1.0
102
RTVSPost2010PropOp56
 70
     1
102
RTVSPost2010Prop57
140
1.0
102
RTVSPost2010PropOp57
 70
     1
102
RTVSPropertyOp0
 70
     1
102
RTVSPropertyOp1
 70
     1
102
RTVSPropertyOp2
 70
     1
102
RTVSPropertyOp3
 70
     1
102
RTVSPropertyOp4
 70
     1
102
RTVSPropertyOp5
 70
     1
102
RTVSPropertyOp6
 70
     1
102
RTVSPropertyOp7
 70
     1
102
RTVSPropertyOp8
 70
     1
102
RTVSPropertyOp9
 70
     1
102
RTVSPropertyOp10
 70
     1
102
RTVSPropertyOp11
 70
     1
102
RTVSPropertyOp12
 70
     1
102
RTVSPropertyOp13
 70
     1
102
RTVSPropertyOp14
 70
     1
102
RTVSPropertyOp15
 70
     1
102
RTVSPropertyOp16
 70
     1
102
RTVSPropertyOp17
 70
     1
102
RTVSPropertyOp18
 70
     1
102
RTVSPropertyOp19
 70
     1
102
RTVSPropertyOp20
 70
     1
102
RTVSPropertyOp21
 70
     1
102
RTVSPropertyOp22
 70
     1
102
RTVSPropertyOp23
 70
     1
102
RTVSPropertyOp24
 70
     1
102
RTVSPropertyOp25
 70
     1
102
RTVSPropertyOp26
 70
     1
102
RTVSPropertyOp27
 70
     1
102
RTVSPropertyOp28
 70
     1
102
RTVSPropertyOp29
 70
     1
102
RTVSPropertyOp30
 70
     1
102
RTVSPropertyOp31
 70
     1
102
RTVSPropertyOp32
 70
     1
102
RTVSPropertyOp33
 70
     1
102
RTVSPropertyOp34
 70
     1
102
RTVSPropertyOp35
 70
     1
102
RTVSPropertyOp36
 70
     1
102
RTVSPropertyOp37
 70
     1
102
RTVSPropertyOp38
 70
     1
102
RTVSPropertyOp39
 70
     1
102
RTVSPropertyOp40
 70
     1
102
RTVSPropertyOp41
 70
     1
102
RTVSPropertyOp42
 70
     1
102
RTVSPropertyOp43
 70
     1
102
RTVSPropertyOp44
 70
     1
102
RTVSPropertyOp45
 70
     1
102
RTVSPropertyOp46
 70
     1
102
RTVSPropertyOp47
 70
     1
102
RTVSPropertyOp48
 70
     1
102
RTVSPropertyOp49
 70
     1
102
RTVSPropertyOp50
 70
     1
102
RTVSPropertyOp51
 70
     0
102
RTVSPropertyOp52
 70
     0
102
RTVSPropertyOp53
 70
     1
102
RTVSPropertyOp54
 70
     1
102
RTVSPropertyOp55
 70
     1
102
RTVSPropertyOp56
 70
     1
102
RTVSPropertyOp57
 70
     1
102
RTVSPropertyOp58
 70
     1
102
RTVSPropertyOp59
 70
     1
102
RTVSPropertyOp60
 70
     1
102
RTVSPropertyOp61
 70
     1
102
RTVSPropertyOp62
 70
     1
  0
XRECORD
  5
1186
102
{ACAD_REACTORS
330
1185
102
}
330
1185
100
AcDbXrecord
280
     1
102
RTVSPost2010Prop28
280
     0
102
RTVSPost2010PropOp28
 70
     0
102
RTVSPost2010Prop29
280
     1
102
RTVSPost2010PropOp29
 70
     0
102
RTVSPost2010Prop30
280
     1
102
RTVSPost2010PropOp30
 70
     0
102
RTVSPost2010Prop31
280
     0
102
RTVSPost2010PropOp31
 70
     0
102
RTVSPost2010Prop32
280
     0
102
RTVSPost2010PropOp32
 70
     0
102
RTVSPost2010Prop33
280
     0
102
RTVSPost2010PropOp33
 70
     0
102
RTVSPost2010Prop34
280
     0
102
RTVSPost2010PropOp34
 70
     0
102
RTVSPost2010Prop35
280
     0
102
RTVSPost2010PropOp35
 70
     0
102
RTVSPost2010Prop36
280
     0
102
RTVSPost2010PropOp36
 70
     0
102
RTVSPost2010Prop37
 90
       50
102
RTVSPost2010PropOp37
 70
     0
102
RTVSPost2010Prop38
140
0.0
102
RTVSPost2010PropOp38
 70
     0
102
RTVSPost2010Prop39
140
1.0
102
RTVSPost2010PropOp39
 70
     0
102
RTVSPost2010Prop40
 90
        0
102
RTVSPost2010PropOp40
 70
     0
102
RTVSPost2010Prop41ColorIndex
 90
       18
102
RTVSPost2010Prop41ColorRGB
 90
        0
102
RTVSPost2010PropOp41
 70
     0
102
RTVSPost2010Prop42
 90
       50
102
RTVSPost2010PropOp42
 70
     0
102
RTVSPost2010Prop43
 90
        3
102
RTVSPost2010PropOp43
 70
     0
102
RTVSPost2010Prop44ColorIndex
 90
        5
102
RTVSPost2010Prop44ColorRGB
 90
      255
102
RTVSPost2010PropOp44
 70
     0
102
RTVSPost2010Prop45
280
     0
102
RTVSPost2010PropOp45
 70
     0
102
RTVSPost2010Prop46
 90
       50
102
RTVSPost2010PropOp46
 70
     0
102
RTVSPost2010Prop47
 90
       50
102
RTVSPost2010PropOp47
 70
     0
102
RTVSPost2010Prop48
 90
       50
102
RTVSPost2010PropOp48
 70
     0
102
RTVSPost2010Prop49
280
     0
102
RTVSPost2010PropOp49
 70
     0
102
RTVSPost2010Prop50
 90
       50
102
RTVSPost2010PropOp50
 70
     0
102
RTVSPost2010Prop51ColorIndex
 90
      256
102
RTVSPost2010Prop51ColorRGB
 90
-16777216
102
RTVSPost2010PropOp51
 70
     0
102
RTVSPost2010Prop52
140
1.0
102
RTVSPost2010PropOp52
 70
     0
102
RTVSPost2010Prop53
 90
        2
102
RTVSPost2010PropOp53
 70
     0
102
RTVSPost2010Prop54
  1
strokes_ogs.tif
102
RTVSPost2010PropOp54
 70
     0
102
RTVSPost2010Prop55
280
     0
102
RTVSPost2010PropOp55
 70
     0
102
RTVSPost2010Prop56
140
1.0
102
RTVSPost2010PropOp56
 70
     0
102
RTVSPost2010Prop57
140
1.0
102
RTVSPost2010PropOp57
 70
     0
102
RTVSPropertyOp0
 70
     0
102
RTVSPropertyOp1
 70
     0
102
RTVSPropertyOp2
 70
     0
102
RTVSPropertyOp3
 70
     0
102
RTVSPropertyOp4
 70
     0
102
RTVSPropertyOp5
 70
     0
102
RTVSPropertyOp6
 70
     0
102
RTVSPropertyOp7
 70
     0
102
RTVSPropertyOp8
 70
     0
102
RTVSPropertyOp9
 70
     0
102
RTVSPropertyOp10
 70
     0
102
RTVSPropertyOp11
 70
     0
102
RTVSPropertyOp12
 70
     0
102
RTVSPropertyOp13
 70
     0
102
RTVSPropertyOp14
 70
     2
102
RTVSPropertyOp15
 70
     0
102
RTVSPropertyOp16
 70
     0
102
RTVSPropertyOp17
 70
     0
102
RTVSPropertyOp18
 70
     0
102
RTVSPropertyOp19
 70
     0
102
RTVSPropertyOp20
 70
     0
102
RTVSPropertyOp21
 70
     0
102
RTVSPropertyOp22
 70
     0
102
RTVSPropertyOp23
 70
     0
102
RTVSPropertyOp24
 70
     0
102
RTVSPropertyOp25
 70
     0
102
RTVSPropertyOp26
 70
     0
102
RTVSPropertyOp27
 70
     0
102
RTVSPropertyOp28
 70
     0
102
RTVSPropertyOp29
 70
     0
102
RTVSPropertyOp30
 70
     0
102
RTVSPropertyOp31
 70
     0
102
RTVSPropertyOp32
 70
     0
102
RTVSPropertyOp33
 70
     0
102
RTVSPropertyOp34
 70
     0
102
RTVSPropertyOp35
 70
     0
102
RTVSPropertyOp36
 70
     0
102
RTVSPropertyOp37
 70
     0
102
RTVSPropertyOp38
 70
     0
102
RTVSPropertyOp39
 70
     0
102
RTVSPropertyOp40
 70
     0
102
RTVSPropertyOp41
 70
     0
102
RTVSPropertyOp42
 70
     0
102
RTVSPropertyOp43
 70
     0
102
RTVSPropertyOp44
 70
     0
102
RTVSPropertyOp45
 70
     0
102
RTVSPropertyOp46
 70
     0
102
RTVSPropertyOp47
 70
     0
102
RTVSPropertyOp48
 70
     0
102
RTVSPropertyOp49
 70
     0
102
RTVSPropertyOp50
 70
     0
102
RTVSPropertyOp51
 70
     0
102
RTVSPropertyOp52
 70
     0
102
RTVSPropertyOp53
 70
     0
102
RTVSPropertyOp54
 70
     0
102
RTVSPropertyOp55
 70
     0
102
RTVSPropertyOp56
 70
     0
102
RTVSPropertyOp57
 70
     0
102
RTVSPropertyOp58
 70
     0
102
RTVSPropertyOp59
 70
     0
102
RTVSPropertyOp60
 70
     0
102
RTVSPropertyOp61
 70
     0
102
RTVSPropertyOp62
 70
     0
  0
XRECORD
  5
116C
102
{ACAD_REACTORS
330
116B
102
}
330
116B
100
AcDbXrecord
280
     1
102
RTVSPost2010Prop28
280
     0
102
RTVSPost2010PropOp28
 70
     1
102
RTVSPost2010Prop29
280
     1
102
RTVSPost2010PropOp29
 70
     1
102
RTVSPost2010Prop30
280
     1
102
RTVSPost2010PropOp30
 70
     1
102
RTVSPost2010Prop31
280
     0
102
RTVSPost2010PropOp31
 70
     1
102
RTVSPost2010Prop32
280
     0
102
RTVSPost2010PropOp32
 70
     1
102
RTVSPost2010Prop33
280
     0
102
RTVSPost2010PropOp33
 70
     1
102
RTVSPost2010Prop34
280
     0
102
RTVSPost2010PropOp34
 70
     1
102
RTVSPost2010Prop35
280
     0
102
RTVSPost2010PropOp35
 70
     1
102
RTVSPost2010Prop36
280
     0
102
RTVSPost2010PropOp36
 70
     1
102
RTVSPost2010Prop37
 90
       50
102
RTVSPost2010PropOp37
 70
     1
102
RTVSPost2010Prop38
140
0.0
102
RTVSPost2010PropOp38
 70
     1
102
RTVSPost2010Prop39
140
1.0
102
RTVSPost2010PropOp39
 70
     1
102
RTVSPost2010Prop40
 90
        0
102
RTVSPost2010PropOp40
 70
     1
102
RTVSPost2010Prop41ColorIndex
 90
       18
102
RTVSPost2010Prop41ColorRGB
 90
        0
102
RTVSPost2010PropOp41
 70
     1
102
RTVSPost2010Prop42
 90
       50
102
RTVSPost2010PropOp42
 70
     1
102
RTVSPost2010Prop43
 90
        3
102
RTVSPost2010PropOp43
 70
     1
102
RTVSPost2010Prop44ColorIndex
 90
        5
102
RTVSPost2010Prop44ColorRGB
 90
      255
102
RTVSPost2010PropOp44
 70
     1
102
RTVSPost2010Prop45
280
     0
102
RTVSPost2010PropOp45
 70
     1
102
RTVSPost2010Prop46
 90
       50
102
RTVSPost2010PropOp46
 70
     1
102
RTVSPost2010Prop47
 90
       50
102
RTVSPost2010PropOp47
 70
     1
102
RTVSPost2010Prop48
 90
       50
102
RTVSPost2010PropOp48
 70
     1
102
RTVSPost2010Prop49
280
     0
102
RTVSPost2010PropOp49
 70
     1
102
RTVSPost2010Prop50
 90
       50
102
RTVSPost2010PropOp50
 70
     1
102
RTVSPost2010Prop51ColorIndex
 90
      256
102
RTVSPost2010Prop51ColorRGB
 90
-16777216
102
RTVSPost2010PropOp51
 70
     0
102
RTVSPost2010Prop52
140
1.0
102
RTVSPost2010PropOp52
 70
     0
102
RTVSPost2010Prop53
 90
        2
102
RTVSPost2010PropOp53
 70
     1
102
RTVSPost2010Prop54
  1
strokes_ogs.tif
102
RTVSPost2010PropOp54
 70
     1
102
RTVSPost2010Prop55
280
     0
102
RTVSPost2010PropOp55
 70
     1
102
RTVSPost2010Prop56
140
1.0
102
RTVSPost2010PropOp56
 70
     1
102
RTVSPost2010Prop57
140
1.0
102
RTVSPost2010PropOp57
 70
     1
102
RTVSPropertyOp0
 70
     1
102
RTVSPropertyOp1
 70
     1
102
RTVSPropertyOp2
 70
     1
102
RTVSPropertyOp3
 70
     1
102
RTVSPropertyOp4
 70
     1
102
RTVSPropertyOp5
 70
     1
102
RTVSPropertyOp6
 70
     1
102
RTVSPropertyOp7
 70
     1
102
RTVSPropertyOp8
 70
     1
102
RTVSPropertyOp9
 70
     1
102
RTVSPropertyOp10
 70
     1
102
RTVSPropertyOp11
 70
     1
102
RTVSPropertyOp12
 70
     1
102
RTVSPropertyOp13
 70
     1
102
RTVSPropertyOp14
 70
     1
102
RTVSPropertyOp15
 70
     1
102
RTVSPropertyOp16
 70
     1
102
RTVSPropertyOp17
 70
     1
102
RTVSPropertyOp18
 70
     1
102
RTVSPropertyOp19
 70
     1
102
RTVSPropertyOp20
 70
     1
102
RTVSPropertyOp21
 70
     1
102
RTVSPropertyOp22
 70
     1
102
RTVSPropertyOp23
 70
     1
102
RTVSPropertyOp24
 70
     1
102
RTVSPropertyOp25
 70
     1
102
RTVSPropertyOp26
 70
     1
102
RTVSPropertyOp27
 70
     1
102
RTVSPropertyOp28
 70
     1
102
RTVSPropertyOp29
 70
     1
102
RTVSPropertyOp30
 70
     1
102
RTVSPropertyOp31
 70
     1
102
RTVSPropertyOp32
 70
     1
102
RTVSPropertyOp33
 70
     1
102
RTVSPropertyOp34
 70
     1
102
RTVSPropertyOp35
 70
     1
102
RTVSPropertyOp36
 70
     1
102
RTVSPropertyOp37
 70
     1
102
RTVSPropertyOp38
 70
     1
102
RTVSPropertyOp39
 70
     1
102
RTVSPropertyOp40
 70
     1
102
RTVSPropertyOp41
 70
     1
102
RTVSPropertyOp42
 70
     1
102
RTVSPropertyOp43
 70
     1
102
RTVSPropertyOp44
 70
     1
102
RTVSPropertyOp45
 70
     1
102
RTVSPropertyOp46
 70
     1
102
RTVSPropertyOp47
 70
     1
102
RTVSPropertyOp48
 70
     1
102
RTVSPropertyOp49
 70
     1
102
RTVSPropertyOp50
 70
     1
102
RTVSPropertyOp51
 70
     0
102
RTVSPropertyOp52
 70
     0
102
RTVSPropertyOp53
 70
     1
102
RTVSPropertyOp54
 70
     1
102
RTVSPropertyOp55
 70
     1
102
RTVSPropertyOp56
 70
     1
102
RTVSPropertyOp57
 70
     1
102
RTVSPropertyOp58
 70
     1
102
RTVSPropertyOp59
 70
     1
102
RTVSPropertyOp60
 70
     1
102
RTVSPropertyOp61
 70
     1
102
RTVSPropertyOp62
 70
     1
  0
XRECORD
  5
1182
102
{ACAD_REACTORS
330
1181
102
}
330
1181
100
AcDbXrecord
280
     1
102
RTVSPost2010Prop28
280
     0
102
RTVSPost2010PropOp28
 70
     1
102
RTVSPost2010Prop29
280
     1
102
RTVSPost2010PropOp29
 70
     1
102
RTVSPost2010Prop30
280
     1
102
RTVSPost2010PropOp30
 70
     1
102
RTVSPost2010Prop31
280
     0
102
RTVSPost2010PropOp31
 70
     1
102
RTVSPost2010Prop32
280
     0
102
RTVSPost2010PropOp32
 70
     1
102
RTVSPost2010Prop33
280
     0
102
RTVSPost2010PropOp33
 70
     1
102
RTVSPost2010Prop34
280
     0
102
RTVSPost2010PropOp34
 70
     1
102
RTVSPost2010Prop35
280
     0
102
RTVSPost2010PropOp35
 70
     1
102
RTVSPost2010Prop36
280
     0
102
RTVSPost2010PropOp36
 70
     1
102
RTVSPost2010Prop37
 90
       50
102
RTVSPost2010PropOp37
 70
     1
102
RTVSPost2010Prop38
140
0.0
102
RTVSPost2010PropOp38
 70
     1
102
RTVSPost2010Prop39
140
1.0
102
RTVSPost2010PropOp39
 70
     1
102
RTVSPost2010Prop40
 90
        0
102
RTVSPost2010PropOp40
 70
     1
102
RTVSPost2010Prop41ColorIndex
 90
       18
102
RTVSPost2010Prop41ColorRGB
 90
        0
102
RTVSPost2010PropOp41
 70
     1
102
RTVSPost2010Prop42
 90
       50
102
RTVSPost2010PropOp42
 70
     1
102
RTVSPost2010Prop43
 90
        3
102
RTVSPost2010PropOp43
 70
     1
102
RTVSPost2010Prop44ColorIndex
 90
        5
102
RTVSPost2010Prop44ColorRGB
 90
      255
102
RTVSPost2010PropOp44
 70
     1
102
RTVSPost2010Prop45
280
     0
102
RTVSPost2010PropOp45
 70
     1
102
RTVSPost2010Prop46
 90
       50
102
RTVSPost2010PropOp46
 70
     1
102
RTVSPost2010Prop47
 90
       50
102
RTVSPost2010PropOp47
 70
     1
102
RTVSPost2010Prop48
 90
       50
102
RTVSPost2010PropOp48
 70
     1
102
RTVSPost2010Prop49
280
     0
102
RTVSPost2010PropOp49
 70
     1
102
RTVSPost2010Prop50
 90
       50
102
RTVSPost2010PropOp50
 70
     1
102
RTVSPost2010Prop51ColorIndex
 90
      256
102
RTVSPost2010Prop51ColorRGB
 90
-16777216
102
RTVSPost2010PropOp51
 70
     0
102
RTVSPost2010Prop52
140
1.0
102
RTVSPost2010PropOp52
 70
     0
102
RTVSPost2010Prop53
 90
        2
102
RTVSPost2010PropOp53
 70
     1
102
RTVSPost2010Prop54
  1
strokes_ogs.tif
102
RTVSPost2010PropOp54
 70
     1
102
RTVSPost2010Prop55
280
     0
102
RTVSPost2010PropOp55
 70
     1
102
RTVSPost2010Prop56
140
1.0
102
RTVSPost2010PropOp56
 70
     1
102
RTVSPost2010Prop57
140
1.0
102
RTVSPost2010PropOp57
 70
     1
102
RTVSPropertyOp0
 70
     1
102
RTVSPropertyOp1
 70
     1
102
RTVSPropertyOp2
 70
     1
102
RTVSPropertyOp3
 70
     1
102
RTVSPropertyOp4
 70
     1
102
RTVSPropertyOp5
 70
     1
102
RTVSPropertyOp6
 70
     1
102
RTVSPropertyOp7
 70
     1
102
RTVSPropertyOp8
 70
     1
102
RTVSPropertyOp9
 70
     1
102
RTVSPropertyOp10
 70
     1
102
RTVSPropertyOp11
 70
     1
102
RTVSPropertyOp12
 70
     1
102
RTVSPropertyOp13
 70
     1
102
RTVSPropertyOp14
 70
     1
102
RTVSPropertyOp15
 70
     1
102
RTVSPropertyOp16
 70
     1
102
RTVSPropertyOp17
 70
     1
102
RTVSPropertyOp18
 70
     1
102
RTVSPropertyOp19
 70
     1
102
RTVSPropertyOp20
 70
     1
102
RTVSPropertyOp21
 70
     1
102
RTVSPropertyOp22
 70
     1
102
RTVSPropertyOp23
 70
     1
102
RTVSPropertyOp24
 70
     1
102
RTVSPropertyOp25
 70
     1
102
RTVSPropertyOp26
 70
     1
102
RTVSPropertyOp27
 70
     1
102
RTVSPropertyOp28
 70
     1
102
RTVSPropertyOp29
 70
     1
102
RTVSPropertyOp30
 70
     1
102
RTVSPropertyOp31
 70
     1
102
RTVSPropertyOp32
 70
     1
102
RTVSPropertyOp33
 70
     1
102
RTVSPropertyOp34
 70
     1
102
RTVSPropertyOp35
 70
     1
102
RTVSPropertyOp36
 70
     1
102
RTVSPropertyOp37
 70
     1
102
RTVSPropertyOp38
 70
     1
102
RTVSPropertyOp39
 70
     1
102
RTVSPropertyOp40
 70
     1
102
RTVSPropertyOp41
 70
     1
102
RTVSPropertyOp42
 70
     1
102
RTVSPropertyOp43
 70
     1
102
RTVSPropertyOp44
 70
     1
102
RTVSPropertyOp45
 70
     1
102
RTVSPropertyOp46
 70
     1
102
RTVSPropertyOp47
 70
     1
102
RTVSPropertyOp48
 70
     1
102
RTVSPropertyOp49
 70
     1
102
RTVSPropertyOp50
 70
     1
102
RTVSPropertyOp51
 70
     0
102
RTVSPropertyOp52
 70
     0
102
RTVSPropertyOp53
 70
     1
102
RTVSPropertyOp54
 70
     1
102
RTVSPropertyOp55
 70
     1
102
RTVSPropertyOp56
 70
     1
102
RTVSPropertyOp57
 70
     1
102
RTVSPropertyOp58
 70
     1
102
RTVSPropertyOp59
 70
     1
102
RTVSPropertyOp60
 70
     1
102
RTVSPropertyOp61
 70
     1
102
RTVSPropertyOp62
 70
     1
  0
XRECORD
  5
1180
102
{ACAD_REACTORS
330
117F
102
}
330
117F
100
AcDbXrecord
280
     1
102
RTVSPost2010Prop28
280
     0
102
RTVSPost2010PropOp28
 70
     1
102
RTVSPost2010Prop29
280
     1
102
RTVSPost2010PropOp29
 70
     1
102
RTVSPost2010Prop30
280
     1
102
RTVSPost2010PropOp30
 70
     1
102
RTVSPost2010Prop31
280
     0
102
RTVSPost2010PropOp31
 70
     1
102
RTVSPost2010Prop32
280
     0
102
RTVSPost2010PropOp32
 70
     1
102
RTVSPost2010Prop33
280
     0
102
RTVSPost2010PropOp33
 70
     1
102
RTVSPost2010Prop34
280
     0
102
RTVSPost2010PropOp34
 70
     1
102
RTVSPost2010Prop35
280
     0
102
RTVSPost2010PropOp35
 70
     1
102
RTVSPost2010Prop36
280
     0
102
RTVSPost2010PropOp36
 70
     1
102
RTVSPost2010Prop37
 90
       50
102
RTVSPost2010PropOp37
 70
     1
102
RTVSPost2010Prop38
140
0.0
102
RTVSPost2010PropOp38
 70
     1
102
RTVSPost2010Prop39
140
1.0
102
RTVSPost2010PropOp39
 70
     1
102
RTVSPost2010Prop40
 90
        0
102
RTVSPost2010PropOp40
 70
     1
102
RTVSPost2010Prop41ColorIndex
 90
       18
102
RTVSPost2010Prop41ColorRGB
 90
        0
102
RTVSPost2010PropOp41
 70
     1
102
RTVSPost2010Prop42
 90
       50
102
RTVSPost2010PropOp42
 70
     1
102
RTVSPost2010Prop43
 90
        3
102
RTVSPost2010PropOp43
 70
     1
102
RTVSPost2010Prop44ColorIndex
 90
        5
102
RTVSPost2010Prop44ColorRGB
 90
      255
102
RTVSPost2010PropOp44
 70
     1
102
RTVSPost2010Prop45
280
     0
102
RTVSPost2010PropOp45
 70
     1
102
RTVSPost2010Prop46
 90
       50
102
RTVSPost2010PropOp46
 70
     1
102
RTVSPost2010Prop47
 90
       50
102
RTVSPost2010PropOp47
 70
     1
102
RTVSPost2010Prop48
 90
       50
102
RTVSPost2010PropOp48
 70
     1
102
RTVSPost2010Prop49
280
     0
102
RTVSPost2010PropOp49
 70
     1
102
RTVSPost2010Prop50
 90
       50
102
RTVSPost2010PropOp50
 70
     1
102
RTVSPost2010Prop51ColorIndex
 90
      256
102
RTVSPost2010Prop51ColorRGB
 90
-16777216
102
RTVSPost2010PropOp51
 70
     0
102
RTVSPost2010Prop52
140
1.0
102
RTVSPost2010PropOp52
 70
     0
102
RTVSPost2010Prop53
 90
        2
102
RTVSPost2010PropOp53
 70
     1
102
RTVSPost2010Prop54
  1
strokes_ogs.tif
102
RTVSPost2010PropOp54
 70
     1
102
RTVSPost2010Prop55
280
     0
102
RTVSPost2010PropOp55
 70
     1
102
RTVSPost2010Prop56
140
1.0
102
RTVSPost2010PropOp56
 70
     1
102
RTVSPost2010Prop57
140
1.0
102
RTVSPost2010PropOp57
 70
     1
102
RTVSPropertyOp0
 70
     1
102
RTVSPropertyOp1
 70
     1
102
RTVSPropertyOp2
 70
     1
102
RTVSPropertyOp3
 70
     1
102
RTVSPropertyOp4
 70
     1
102
RTVSPropertyOp5
 70
     1
102
RTVSPropertyOp6
 70
     1
102
RTVSPropertyOp7
 70
     1
102
RTVSPropertyOp8
 70
     1
102
RTVSPropertyOp9
 70
     1
102
RTVSPropertyOp10
 70
     1
102
RTVSPropertyOp11
 70
     1
102
RTVSPropertyOp12
 70
     1
102
RTVSPropertyOp13
 70
     1
102
RTVSPropertyOp14
 70
     1
102
RTVSPropertyOp15
 70
     1
102
RTVSPropertyOp16
 70
     1
102
RTVSPropertyOp17
 70
     1
102
RTVSPropertyOp18
 70
     1
102
RTVSPropertyOp19
 70
     1
102
RTVSPropertyOp20
 70
     1
102
RTVSPropertyOp21
 70
     1
102
RTVSPropertyOp22
 70
     1
102
RTVSPropertyOp23
 70
     1
102
RTVSPropertyOp24
 70
     1
102
RTVSPropertyOp25
 70
     1
102
RTVSPropertyOp26
 70
     1
102
RTVSPropertyOp27
 70
     1
102
RTVSPropertyOp28
 70
     1
102
RTVSPropertyOp29
 70
     1
102
RTVSPropertyOp30
 70
     1
102
RTVSPropertyOp31
 70
     1
102
RTVSPropertyOp32
 70
     1
102
RTVSPropertyOp33
 70
     1
102
RTVSPropertyOp34
 70
     1
102
RTVSPropertyOp35
 70
     1
102
RTVSPropertyOp36
 70
     1
102
RTVSPropertyOp37
 70
     1
102
RTVSPropertyOp38
 70
     1
102
RTVSPropertyOp39
 70
     1
102
RTVSPropertyOp40
 70
     1
102
RTVSPropertyOp41
 70
     1
102
RTVSPropertyOp42
 70
     1
102
RTVSPropertyOp43
 70
     1
102
RTVSPropertyOp44
 70
     1
102
RTVSPropertyOp45
 70
     1
102
RTVSPropertyOp46
 70
     1
102
RTVSPropertyOp47
 70
     1
102
RTVSPropertyOp48
 70
     1
102
RTVSPropertyOp49
 70
     1
102
RTVSPropertyOp50
 70
     1
102
RTVSPropertyOp51
 70
     0
102
RTVSPropertyOp52
 70
     0
102
RTVSPropertyOp53
 70
     1
102
RTVSPropertyOp54
 70
     1
102
RTVSPropertyOp55
 70
     1
102
RTVSPropertyOp56
 70
     1
102
RTVSPropertyOp57
 70
     1
102
RTVSPropertyOp58
 70
     1
102
RTVSPropertyOp59
 70
     1
102
RTVSPropertyOp60
 70
     1
102
RTVSPropertyOp61
 70
     1
102
RTVSPropertyOp62
 70
     1
  0
XRECORD
  5
117A
102
{ACAD_REACTORS
330
1179
102
}
330
1179
100
AcDbXrecord
280
     1
102
RTVSPost2010Prop28
280
     0
102
RTVSPost2010PropOp28
 70
     1
102
RTVSPost2010Prop29
280
     1
102
RTVSPost2010PropOp29
 70
     1
102
RTVSPost2010Prop30
280
     1
102
RTVSPost2010PropOp30
 70
     1
102
RTVSPost2010Prop31
280
     0
102
RTVSPost2010PropOp31
 70
     1
102
RTVSPost2010Prop32
280
     0
102
RTVSPost2010PropOp32
 70
     1
102
RTVSPost2010Prop33
280
     0
102
RTVSPost2010PropOp33
 70
     1
102
RTVSPost2010Prop34
280
     0
102
RTVSPost2010PropOp34
 70
     1
102
RTVSPost2010Prop35
280
     0
102
RTVSPost2010PropOp35
 70
     1
102
RTVSPost2010Prop36
280
     0
102
RTVSPost2010PropOp36
 70
     1
102
RTVSPost2010Prop37
 90
       50
102
RTVSPost2010PropOp37
 70
     1
102
RTVSPost2010Prop38
140
0.0
102
RTVSPost2010PropOp38
 70
     1
102
RTVSPost2010Prop39
140
1.0
102
RTVSPost2010PropOp39
 70
     1
102
RTVSPost2010Prop40
 90
        0
102
RTVSPost2010PropOp40
 70
     1
102
RTVSPost2010Prop41ColorIndex
 90
       18
102
RTVSPost2010Prop41ColorRGB
 90
        0
102
RTVSPost2010PropOp41
 70
     1
102
RTVSPost2010Prop42
 90
       50
102
RTVSPost2010PropOp42
 70
     1
102
RTVSPost2010Prop43
 90
        3
102
RTVSPost2010PropOp43
 70
     1
102
RTVSPost2010Prop44ColorIndex
 90
        5
102
RTVSPost2010Prop44ColorRGB
 90
      255
102
RTVSPost2010PropOp44
 70
     1
102
RTVSPost2010Prop45
280
     0
102
RTVSPost2010PropOp45
 70
     1
102
RTVSPost2010Prop46
 90
       50
102
RTVSPost2010PropOp46
 70
     1
102
RTVSPost2010Prop47
 90
       50
102
RTVSPost2010PropOp47
 70
     1
102
RTVSPost2010Prop48
 90
       50
102
RTVSPost2010PropOp48
 70
     1
102
RTVSPost2010Prop49
280
     0
102
RTVSPost2010PropOp49
 70
     1
102
RTVSPost2010Prop50
 90
       50
102
RTVSPost2010PropOp50
 70
     1
102
RTVSPost2010Prop51ColorIndex
 90
      256
102
RTVSPost2010Prop51ColorRGB
 90
-16777216
102
RTVSPost2010PropOp51
 70
     0
102
RTVSPost2010Prop52
140
1.0
102
RTVSPost2010PropOp52
 70
     0
102
RTVSPost2010Prop53
 90
        2
102
RTVSPost2010PropOp53
 70
     1
102
RTVSPost2010Prop54
  1
strokes_ogs.tif
102
RTVSPost2010PropOp54
 70
     1
102
RTVSPost2010Prop55
280
     0
102
RTVSPost2010PropOp55
 70
     1
102
RTVSPost2010Prop56
140
1.0
102
RTVSPost2010PropOp56
 70
     1
102
RTVSPost2010Prop57
140
1.0
102
RTVSPost2010PropOp57
 70
     1
102
RTVSPropertyOp0
 70
     1
102
RTVSPropertyOp1
 70
     1
102
RTVSPropertyOp2
 70
     1
102
RTVSPropertyOp3
 70
     1
102
RTVSPropertyOp4
 70
     1
102
RTVSPropertyOp5
 70
     1
102
RTVSPropertyOp6
 70
     1
102
RTVSPropertyOp7
 70
     1
102
RTVSPropertyOp8
 70
     1
102
RTVSPropertyOp9
 70
     1
102
RTVSPropertyOp10
 70
     1
102
RTVSPropertyOp11
 70
     1
102
RTVSPropertyOp12
 70
     1
102
RTVSPropertyOp13
 70
     1
102
RTVSPropertyOp14
 70
     1
102
RTVSPropertyOp15
 70
     1
102
RTVSPropertyOp16
 70
     1
102
RTVSPropertyOp17
 70
     1
102
RTVSPropertyOp18
 70
     1
102
RTVSPropertyOp19
 70
     1
102
RTVSPropertyOp20
 70
     1
102
RTVSPropertyOp21
 70
     1
102
RTVSPropertyOp22
 70
     1
102
RTVSPropertyOp23
 70
     1
102
RTVSPropertyOp24
 70
     1
102
RTVSPropertyOp25
 70
     1
102
RTVSPropertyOp26
 70
     1
102
RTVSPropertyOp27
 70
     1
102
RTVSPropertyOp28
 70
     1
102
RTVSPropertyOp29
 70
     1
102
RTVSPropertyOp30
 70
     1
102
RTVSPropertyOp31
 70
     1
102
RTVSPropertyOp32
 70
     1
102
RTVSPropertyOp33
 70
     1
102
RTVSPropertyOp34
 70
     1
102
RTVSPropertyOp35
 70
     1
102
RTVSPropertyOp36
 70
     1
102
RTVSPropertyOp37
 70
     1
102
RTVSPropertyOp38
 70
     1
102
RTVSPropertyOp39
 70
     1
102
RTVSPropertyOp40
 70
     1
102
RTVSPropertyOp41
 70
     1
102
RTVSPropertyOp42
 70
     1
102
RTVSPropertyOp43
 70
     1
102
RTVSPropertyOp44
 70
     1
102
RTVSPropertyOp45
 70
     1
102
RTVSPropertyOp46
 70
     1
102
RTVSPropertyOp47
 70
     1
102
RTVSPropertyOp48
 70
     1
102
RTVSPropertyOp49
 70
     1
102
RTVSPropertyOp50
 70
     1
102
RTVSPropertyOp51
 70
     0
102
RTVSPropertyOp52
 70
     0
102
RTVSPropertyOp53
 70
     1
102
RTVSPropertyOp54
 70
     1
102
RTVSPropertyOp55
 70
     1
102
RTVSPropertyOp56
 70
     1
102
RTVSPropertyOp57
 70
     1
102
RTVSPropertyOp58
 70
     1
102
RTVSPropertyOp59
 70
     1
102
RTVSPropertyOp60
 70
     1
102
RTVSPropertyOp61
 70
     1
102
RTVSPropertyOp62
 70
     1
  0
XRECORD
  5
117C
102
{ACAD_REACTORS
330
117B
102
}
330
117B
100
AcDbXrecord
280
     1
102
RTVSPost2010Prop28
280
     0
102
RTVSPost2010PropOp28
 70
     1
102
RTVSPost2010Prop29
280
     1
102
RTVSPost2010PropOp29
 70
     1
102
RTVSPost2010Prop30
280
     1
102
RTVSPost2010PropOp30
 70
     1
102
RTVSPost2010Prop31
280
     0
102
RTVSPost2010PropOp31
 70
     1
102
RTVSPost2010Prop32
280
     0
102
RTVSPost2010PropOp32
 70
     1
102
RTVSPost2010Prop33
280
     0
102
RTVSPost2010PropOp33
 70
     1
102
RTVSPost2010Prop34
280
     0
102
RTVSPost2010PropOp34
 70
     1
102
RTVSPost2010Prop35
280
     0
102
RTVSPost2010PropOp35
 70
     1
102
RTVSPost2010Prop36
280
     0
102
RTVSPost2010PropOp36
 70
     1
102
RTVSPost2010Prop37
 90
       50
102
RTVSPost2010PropOp37
 70
     1
102
RTVSPost2010Prop38
140
0.0
102
RTVSPost2010PropOp38
 70
     1
102
RTVSPost2010Prop39
140
1.0
102
RTVSPost2010PropOp39
 70
     1
102
RTVSPost2010Prop40
 90
        0
102
RTVSPost2010PropOp40
 70
     1
102
RTVSPost2010Prop41ColorIndex
 90
       18
102
RTVSPost2010Prop41ColorRGB
 90
        0
102
RTVSPost2010PropOp41
 70
     1
102
RTVSPost2010Prop42
 90
       50
102
RTVSPost2010PropOp42
 70
     1
102
RTVSPost2010Prop43
 90
        3
102
RTVSPost2010PropOp43
 70
     1
102
RTVSPost2010Prop44ColorIndex
 90
        5
102
RTVSPost2010Prop44ColorRGB
 90
      255
102
RTVSPost2010PropOp44
 70
     1
102
RTVSPost2010Prop45
280
     0
102
RTVSPost2010PropOp45
 70
     1
102
RTVSPost2010Prop46
 90
       50
102
RTVSPost2010PropOp46
 70
     1
102
RTVSPost2010Prop47
 90
       50
102
RTVSPost2010PropOp47
 70
     1
102
RTVSPost2010Prop48
 90
       50
102
RTVSPost2010PropOp48
 70
     1
102
RTVSPost2010Prop49
280
     0
102
RTVSPost2010PropOp49
 70
     1
102
RTVSPost2010Prop50
 90
       50
102
RTVSPost2010PropOp50
 70
     1
102
RTVSPost2010Prop51ColorIndex
 90
      256
102
RTVSPost2010Prop51ColorRGB
 90
-16777216
102
RTVSPost2010PropOp51
 70
     0
102
RTVSPost2010Prop52
140
1.0
102
RTVSPost2010PropOp52
 70
     0
102
RTVSPost2010Prop53
 90
        2
102
RTVSPost2010PropOp53
 70
     1
102
RTVSPost2010Prop54
  1
strokes_ogs.tif
102
RTVSPost2010PropOp54
 70
     1
102
RTVSPost2010Prop55
280
     0
102
RTVSPost2010PropOp55
 70
     1
102
RTVSPost2010Prop56
140
1.0
102
RTVSPost2010PropOp56
 70
     1
102
RTVSPost2010Prop57
140
1.0
102
RTVSPost2010PropOp57
 70
     1
102
RTVSPropertyOp0
 70
     1
102
RTVSPropertyOp1
 70
     1
102
RTVSPropertyOp2
 70
     1
102
RTVSPropertyOp3
 70
     1
102
RTVSPropertyOp4
 70
     1
102
RTVSPropertyOp5
 70
     1
102
RTVSPropertyOp6
 70
     1
102
RTVSPropertyOp7
 70
     1
102
RTVSPropertyOp8
 70
     1
102
RTVSPropertyOp9
 70
     1
102
RTVSPropertyOp10
 70
     1
102
RTVSPropertyOp11
 70
     1
102
RTVSPropertyOp12
 70
     1
102
RTVSPropertyOp13
 70
     1
102
RTVSPropertyOp14
 70
     1
102
RTVSPropertyOp15
 70
     1
102
RTVSPropertyOp16
 70
     1
102
RTVSPropertyOp17
 70
     1
102
RTVSPropertyOp18
 70
     1
102
RTVSPropertyOp19
 70
     1
102
RTVSPropertyOp20
 70
     1
102
RTVSPropertyOp21
 70
     1
102
RTVSPropertyOp22
 70
     1
102
RTVSPropertyOp23
 70
     1
102
RTVSPropertyOp24
 70
     1
102
RTVSPropertyOp25
 70
     1
102
RTVSPropertyOp26
 70
     1
102
RTVSPropertyOp27
 70
     1
102
RTVSPropertyOp28
 70
     1
102
RTVSPropertyOp29
 70
     1
102
RTVSPropertyOp30
 70
     1
102
RTVSPropertyOp31
 70
     1
102
RTVSPropertyOp32
 70
     1
102
RTVSPropertyOp33
 70
     1
102
RTVSPropertyOp34
 70
     1
102
RTVSPropertyOp35
 70
     1
102
RTVSPropertyOp36
 70
     1
102
RTVSPropertyOp37
 70
     1
102
RTVSPropertyOp38
 70
     1
102
RTVSPropertyOp39
 70
     1
102
RTVSPropertyOp40
 70
     1
102
RTVSPropertyOp41
 70
     1
102
RTVSPropertyOp42
 70
     1
102
RTVSPropertyOp43
 70
     1
102
RTVSPropertyOp44
 70
     1
102
RTVSPropertyOp45
 70
     1
102
RTVSPropertyOp46
 70
     1
102
RTVSPropertyOp47
 70
     1
102
RTVSPropertyOp48
 70
     1
102
RTVSPropertyOp49
 70
     1
102
RTVSPropertyOp50
 70
     1
102
RTVSPropertyOp51
 70
     0
102
RTVSPropertyOp52
 70
     0
102
RTVSPropertyOp53
 70
     1
102
RTVSPropertyOp54
 70
     1
102
RTVSPropertyOp55
 70
     1
102
RTVSPropertyOp56
 70
     1
102
RTVSPropertyOp57
 70
     1
102
RTVSPropertyOp58
 70
     1
102
RTVSPropertyOp59
 70
     1
102
RTVSPropertyOp60
 70
     1
102
RTVSPropertyOp61
 70
     1
102
RTVSPropertyOp62
 70
     1
  0
XRECORD
  5
1172
102
{ACAD_REACTORS
330
1171
102
}
330
1171
100
AcDbXrecord
280
     1
102
RTVSPost2010Prop28
280
     0
102
RTVSPost2010PropOp28
 70
     1
102
RTVSPost2010Prop29
280
     1
102
RTVSPost2010PropOp29
 70
     1
102
RTVSPost2010Prop30
280
     1
102
RTVSPost2010PropOp30
 70
     1
102
RTVSPost2010Prop31
280
     0
102
RTVSPost2010PropOp31
 70
     1
102
RTVSPost2010Prop32
280
     0
102
RTVSPost2010PropOp32
 70
     1
102
RTVSPost2010Prop33
280
     0
102
RTVSPost2010PropOp33
 70
     1
102
RTVSPost2010Prop34
280
     0
102
RTVSPost2010PropOp34
 70
     1
102
RTVSPost2010Prop35
280
     0
102
RTVSPost2010PropOp35
 70
     1
102
RTVSPost2010Prop36
280
     0
102
RTVSPost2010PropOp36
 70
     1
102
RTVSPost2010Prop37
 90
       50
102
RTVSPost2010PropOp37
 70
     1
102
RTVSPost2010Prop38
140
0.0
102
RTVSPost2010PropOp38
 70
     1
102
RTVSPost2010Prop39
140
1.0
102
RTVSPost2010PropOp39
 70
     1
102
RTVSPost2010Prop40
 90
        0
102
RTVSPost2010PropOp40
 70
     1
102
RTVSPost2010Prop41ColorIndex
 90
       18
102
RTVSPost2010Prop41ColorRGB
 90
        0
102
RTVSPost2010PropOp41
 70
     1
102
RTVSPost2010Prop42
 90
       50
102
RTVSPost2010PropOp42
 70
     1
102
RTVSPost2010Prop43
 90
        3
102
RTVSPost2010PropOp43
 70
     1
102
RTVSPost2010Prop44ColorIndex
 90
        5
102
RTVSPost2010Prop44ColorRGB
 90
      255
102
RTVSPost2010PropOp44
 70
     1
102
RTVSPost2010Prop45
280
     0
102
RTVSPost2010PropOp45
 70
     1
102
RTVSPost2010Prop46
 90
       50
102
RTVSPost2010PropOp46
 70
     1
102
RTVSPost2010Prop47
 90
       50
102
RTVSPost2010PropOp47
 70
     1
102
RTVSPost2010Prop48
 90
       50
102
RTVSPost2010PropOp48
 70
     1
102
RTVSPost2010Prop49
280
     0
102
RTVSPost2010PropOp49
 70
     1
102
RTVSPost2010Prop50
 90
       50
102
RTVSPost2010PropOp50
 70
     1
102
RTVSPost2010Prop51ColorIndex
 90
      256
102
RTVSPost2010Prop51ColorRGB
 90
-16777216
102
RTVSPost2010PropOp51
 70
     0
102
RTVSPost2010Prop52
140
1.0
102
RTVSPost2010PropOp52
 70
     0
102
RTVSPost2010Prop53
 90
        2
102
RTVSPost2010PropOp53
 70
     1
102
RTVSPost2010Prop54
  1
strokes_ogs.tif
102
RTVSPost2010PropOp54
 70
     1
102
RTVSPost2010Prop55
280
     0
102
RTVSPost2010PropOp55
 70
     1
102
RTVSPost2010Prop56
140
1.0
102
RTVSPost2010PropOp56
 70
     1
102
RTVSPost2010Prop57
140
1.0
102
RTVSPost2010PropOp57
 70
     1
102
RTVSPropertyOp0
 70
     1
102
RTVSPropertyOp1
 70
     1
102
RTVSPropertyOp2
 70
     1
102
RTVSPropertyOp3
 70
     1
102
RTVSPropertyOp4
 70
     1
102
RTVSPropertyOp5
 70
     1
102
RTVSPropertyOp6
 70
     1
102
RTVSPropertyOp7
 70
     1
102
RTVSPropertyOp8
 70
     1
102
RTVSPropertyOp9
 70
     1
102
RTVSPropertyOp10
 70
     1
102
RTVSPropertyOp11
 70
     1
102
RTVSPropertyOp12
 70
     1
102
RTVSPropertyOp13
 70
     1
102
RTVSPropertyOp14
 70
     1
102
RTVSPropertyOp15
 70
     1
102
RTVSPropertyOp16
 70
     1
102
RTVSPropertyOp17
 70
     1
102
RTVSPropertyOp18
 70
     1
102
RTVSPropertyOp19
 70
     1
102
RTVSPropertyOp20
 70
     1
102
RTVSPropertyOp21
 70
     1
102
RTVSPropertyOp22
 70
     1
102
RTVSPropertyOp23
 70
     1
102
RTVSPropertyOp24
 70
     1
102
RTVSPropertyOp25
 70
     1
102
RTVSPropertyOp26
 70
     1
102
RTVSPropertyOp27
 70
     1
102
RTVSPropertyOp28
 70
     1
102
RTVSPropertyOp29
 70
     1
102
RTVSPropertyOp30
 70
     1
102
RTVSPropertyOp31
 70
     1
102
RTVSPropertyOp32
 70
     1
102
RTVSPropertyOp33
 70
     1
102
RTVSPropertyOp34
 70
     1
102
RTVSPropertyOp35
 70
     1
102
RTVSPropertyOp36
 70
     1
102
RTVSPropertyOp37
 70
     1
102
RTVSPropertyOp38
 70
     1
102
RTVSPropertyOp39
 70
     1
102
RTVSPropertyOp40
 70
     1
102
RTVSPropertyOp41
 70
     1
102
RTVSPropertyOp42
 70
     1
102
RTVSPropertyOp43
 70
     1
102
RTVSPropertyOp44
 70
     1
102
RTVSPropertyOp45
 70
     1
102
RTVSPropertyOp46
 70
     1
102
RTVSPropertyOp47
 70
     1
102
RTVSPropertyOp48
 70
     1
102
RTVSPropertyOp49
 70
     1
102
RTVSPropertyOp50
 70
     1
102
RTVSPropertyOp51
 70
     0
102
RTVSPropertyOp52
 70
     0
102
RTVSPropertyOp53
 70
     1
102
RTVSPropertyOp54
 70
     1
102
RTVSPropertyOp55
 70
     1
102
RTVSPropertyOp56
 70
     1
102
RTVSPropertyOp57
 70
     1
102
RTVSPropertyOp58
 70
     1
102
RTVSPropertyOp59
 70
     1
102
RTVSPropertyOp60
 70
     1
102
RTVSPropertyOp61
 70
     1
102
RTVSPropertyOp62
 70
     1
  0
XRECORD
  5
1166
102
{ACAD_REACTORS
330
1165
102
}
330
1165
100
AcDbXrecord
280
     1
102
RTVSPost2010Prop28
280
     0
102
RTVSPost2010PropOp28
 70
     1
102
RTVSPost2010Prop29
280
     1
102
RTVSPost2010PropOp29
 70
     1
102
RTVSPost2010Prop30
280
     1
102
RTVSPost2010PropOp30
 70
     1
102
RTVSPost2010Prop31
280
     0
102
RTVSPost2010PropOp31
 70
     1
102
RTVSPost2010Prop32
280
     0
102
RTVSPost2010PropOp32
 70
     1
102
RTVSPost2010Prop33
280
     0
102
RTVSPost2010PropOp33
 70
     1
102
RTVSPost2010Prop34
280
     0
102
RTVSPost2010PropOp34
 70
     1
102
RTVSPost2010Prop35
280
     0
102
RTVSPost2010PropOp35
 70
     1
102
RTVSPost2010Prop36
280
     0
102
RTVSPost2010PropOp36
 70
     1
102
RTVSPost2010Prop37
 90
       50
102
RTVSPost2010PropOp37
 70
     1
102
RTVSPost2010Prop38
140
0.0
102
RTVSPost2010PropOp38
 70
     1
102
RTVSPost2010Prop39
140
1.0
102
RTVSPost2010PropOp39
 70
     1
102
RTVSPost2010Prop40
 90
        0
102
RTVSPost2010PropOp40
 70
     1
102
RTVSPost2010Prop41ColorIndex
 90
       18
102
RTVSPost2010Prop41ColorRGB
 90
        0
102
RTVSPost2010PropOp41
 70
     1
102
RTVSPost2010Prop42
 90
       50
102
RTVSPost2010PropOp42
 70
     1
102
RTVSPost2010Prop43
 90
        3
102
RTVSPost2010PropOp43
 70
     1
102
RTVSPost2010Prop44ColorIndex
 90
        5
102
RTVSPost2010Prop44ColorRGB
 90
      255
102
RTVSPost2010PropOp44
 70
     1
102
RTVSPost2010Prop45
280
     0
102
RTVSPost2010PropOp45
 70
     1
102
RTVSPost2010Prop46
 90
       50
102
RTVSPost2010PropOp46
 70
     1
102
RTVSPost2010Prop47
 90
       50
102
RTVSPost2010PropOp47
 70
     1
102
RTVSPost2010Prop48
 90
       50
102
RTVSPost2010PropOp48
 70
     1
102
RTVSPost2010Prop49
280
     0
102
RTVSPost2010PropOp49
 70
     1
102
RTVSPost2010Prop50
 90
       50
102
RTVSPost2010PropOp50
 70
     1
102
RTVSPost2010Prop51ColorIndex
 90
      256
102
RTVSPost2010Prop51ColorRGB
 90
-16777216
102
RTVSPost2010PropOp51
 70
     0
102
RTVSPost2010Prop52
140
1.0
102
RTVSPost2010PropOp52
 70
     0
102
RTVSPost2010Prop53
 90
        2
102
RTVSPost2010PropOp53
 70
     1
102
RTVSPost2010Prop54
  1
strokes_ogs.tif
102
RTVSPost2010PropOp54
 70
     1
102
RTVSPost2010Prop55
280
     0
102
RTVSPost2010PropOp55
 70
     1
102
RTVSPost2010Prop56
140
1.0
102
RTVSPost2010PropOp56
 70
     1
102
RTVSPost2010Prop57
140
1.0
102
RTVSPost2010PropOp57
 70
     1
102
RTVSPropertyOp0
 70
     1
102
RTVSPropertyOp1
 70
     1
102
RTVSPropertyOp2
 70
     1
102
RTVSPropertyOp3
 70
     1
102
RTVSPropertyOp4
 70
     1
102
RTVSPropertyOp5
 70
     1
102
RTVSPropertyOp6
 70
     1
102
RTVSPropertyOp7
 70
     1
102
RTVSPropertyOp8
 70
     1
102
RTVSPropertyOp9
 70
     1
102
RTVSPropertyOp10
 70
     1
102
RTVSPropertyOp11
 70
     1
102
RTVSPropertyOp12
 70
     1
102
RTVSPropertyOp13
 70
     1
102
RTVSPropertyOp14
 70
     1
102
RTVSPropertyOp15
 70
     1
102
RTVSPropertyOp16
 70
     1
102
RTVSPropertyOp17
 70
     1
102
RTVSPropertyOp18
 70
     1
102
RTVSPropertyOp19
 70
     1
102
RTVSPropertyOp20
 70
     1
102
RTVSPropertyOp21
 70
     1
102
RTVSPropertyOp22
 70
     1
102
RTVSPropertyOp23
 70
     1
102
RTVSPropertyOp24
 70
     1
102
RTVSPropertyOp25
 70
     1
102
RTVSPropertyOp26
 70
     1
102
RTVSPropertyOp27
 70
     1
102
RTVSPropertyOp28
 70
     1
102
RTVSPropertyOp29
 70
     1
102
RTVSPropertyOp30
 70
     1
102
RTVSPropertyOp31
 70
     1
102
RTVSPropertyOp32
 70
     1
102
RTVSPropertyOp33
 70
     1
102
RTVSPropertyOp34
 70
     1
102
RTVSPropertyOp35
 70
     1
102
RTVSPropertyOp36
 70
     1
102
RTVSPropertyOp37
 70
     1
102
RTVSPropertyOp38
 70
     1
102
RTVSPropertyOp39
 70
     1
102
RTVSPropertyOp40
 70
     1
102
RTVSPropertyOp41
 70
     1
102
RTVSPropertyOp42
 70
     1
102
RTVSPropertyOp43
 70
     1
102
RTVSPropertyOp44
 70
     1
102
RTVSPropertyOp45
 70
     1
102
RTVSPropertyOp46
 70
     1
102
RTVSPropertyOp47
 70
     1
102
RTVSPropertyOp48
 70
     1
102
RTVSPropertyOp49
 70
     1
102
RTVSPropertyOp50
 70
     1
102
RTVSPropertyOp51
 70
     0
102
RTVSPropertyOp52
 70
     0
102
RTVSPropertyOp53
 70
     1
102
RTVSPropertyOp54
 70
     1
102
RTVSPropertyOp55
 70
     1
102
RTVSPropertyOp56
 70
     1
102
RTVSPropertyOp57
 70
     1
102
RTVSPropertyOp58
 70
     1
102
RTVSPropertyOp59
 70
     1
102
RTVSPropertyOp60
 70
     1
102
RTVSPropertyOp61
 70
     1
102
RTVSPropertyOp62
 70
     1
  0
XRECORD
  5
117E
102
{ACAD_REACTORS
330
117D
102
}
330
117D
100
AcDbXrecord
280
     1
102
RTVSPost2010Prop28
280
     0
102
RTVSPost2010PropOp28
 70
     1
102
RTVSPost2010Prop29
280
     1
102
RTVSPost2010PropOp29
 70
     1
102
RTVSPost2010Prop30
280
     1
102
RTVSPost2010PropOp30
 70
     1
102
RTVSPost2010Prop31
280
     0
102
RTVSPost2010PropOp31
 70
     1
102
RTVSPost2010Prop32
280
     0
102
RTVSPost2010PropOp32
 70
     1
102
RTVSPost2010Prop33
280
     0
102
RTVSPost2010PropOp33
 70
     1
102
RTVSPost2010Prop34
280
     0
102
RTVSPost2010PropOp34
 70
     1
102
RTVSPost2010Prop35
280
     0
102
RTVSPost2010PropOp35
 70
     1
102
RTVSPost2010Prop36
280
     0
102
RTVSPost2010PropOp36
 70
     1
102
RTVSPost2010Prop37
 90
       50
102
RTVSPost2010PropOp37
 70
     1
102
RTVSPost2010Prop38
140
0.0
102
RTVSPost2010PropOp38
 70
     1
102
RTVSPost2010Prop39
140
1.0
102
RTVSPost2010PropOp39
 70
     1
102
RTVSPost2010Prop40
 90
        0
102
RTVSPost2010PropOp40
 70
     1
102
RTVSPost2010Prop41ColorIndex
 90
       18
102
RTVSPost2010Prop41ColorRGB
 90
        0
102
RTVSPost2010PropOp41
 70
     1
102
RTVSPost2010Prop42
 90
       50
102
RTVSPost2010PropOp42
 70
     1
102
RTVSPost2010Prop43
 90
        3
102
RTVSPost2010PropOp43
 70
     1
102
RTVSPost2010Prop44ColorIndex
 90
        5
102
RTVSPost2010Prop44ColorRGB
 90
      255
102
RTVSPost2010PropOp44
 70
     1
102
RTVSPost2010Prop45
280
     0
102
RTVSPost2010PropOp45
 70
     1
102
RTVSPost2010Prop46
 90
       50
102
RTVSPost2010PropOp46
 70
     1
102
RTVSPost2010Prop47
 90
       50
102
RTVSPost2010PropOp47
 70
     1
102
RTVSPost2010Prop48
 90
       50
102
RTVSPost2010PropOp48
 70
     1
102
RTVSPost2010Prop49
280
     0
102
RTVSPost2010PropOp49
 70
     1
102
RTVSPost2010Prop50
 90
       50
102
RTVSPost2010PropOp50
 70
     1
102
RTVSPost2010Prop51ColorIndex
 90
      256
102
RTVSPost2010Prop51ColorRGB
 90
-16777216
102
RTVSPost2010PropOp51
 70
     0
102
RTVSPost2010Prop52
140
1.0
102
RTVSPost2010PropOp52
 70
     0
102
RTVSPost2010Prop53
 90
        2
102
RTVSPost2010PropOp53
 70
     1
102
RTVSPost2010Prop54
  1
strokes_ogs.tif
102
RTVSPost2010PropOp54
 70
     1
102
RTVSPost2010Prop55
280
     0
102
RTVSPost2010PropOp55
 70
     1
102
RTVSPost2010Prop56
140
1.0
102
RTVSPost2010PropOp56
 70
     1
102
RTVSPost2010Prop57
140
1.0
102
RTVSPost2010PropOp57
 70
     1
102
RTVSPropertyOp0
 70
     1
102
RTVSPropertyOp1
 70
     1
102
RTVSPropertyOp2
 70
     1
102
RTVSPropertyOp3
 70
     1
102
RTVSPropertyOp4
 70
     1
102
RTVSPropertyOp5
 70
     1
102
RTVSPropertyOp6
 70
     1
102
RTVSPropertyOp7
 70
     1
102
RTVSPropertyOp8
 70
     1
102
RTVSPropertyOp9
 70
     1
102
RTVSPropertyOp10
 70
     1
102
RTVSPropertyOp11
 70
     1
102
RTVSPropertyOp12
 70
     1
102
RTVSPropertyOp13
 70
     1
102
RTVSPropertyOp14
 70
     1
102
RTVSPropertyOp15
 70
     1
102
RTVSPropertyOp16
 70
     1
102
RTVSPropertyOp17
 70
     1
102
RTVSPropertyOp18
 70
     1
102
RTVSPropertyOp19
 70
     1
102
RTVSPropertyOp20
 70
     1
102
RTVSPropertyOp21
 70
     1
102
RTVSPropertyOp22
 70
     1
102
RTVSPropertyOp23
 70
     1
102
RTVSPropertyOp24
 70
     1
102
RTVSPropertyOp25
 70
     1
102
RTVSPropertyOp26
 70
     1
102
RTVSPropertyOp27
 70
     1
102
RTVSPropertyOp28
 70
     1
102
RTVSPropertyOp29
 70
     1
102
RTVSPropertyOp30
 70
     1
102
RTVSPropertyOp31
 70
     1
102
RTVSPropertyOp32
 70
     1
102
RTVSPropertyOp33
 70
     1
102
RTVSPropertyOp34
 70
     1
102
RTVSPropertyOp35
 70
     1
102
RTVSPropertyOp36
 70
     1
102
RTVSPropertyOp37
 70
     1
102
RTVSPropertyOp38
 70
     1
102
RTVSPropertyOp39
 70
     1
102
RTVSPropertyOp40
 70
     1
102
RTVSPropertyOp41
 70
     1
102
RTVSPropertyOp42
 70
     1
102
RTVSPropertyOp43
 70
     1
102
RTVSPropertyOp44
 70
     1
102
RTVSPropertyOp45
 70
     1
102
RTVSPropertyOp46
 70
     1
102
RTVSPropertyOp47
 70
     1
102
RTVSPropertyOp48
 70
     1
102
RTVSPropertyOp49
 70
     1
102
RTVSPropertyOp50
 70
     1
102
RTVSPropertyOp51
 70
     0
102
RTVSPropertyOp52
 70
     0
102
RTVSPropertyOp53
 70
     1
102
RTVSPropertyOp54
 70
     1
102
RTVSPropertyOp55
 70
     1
102
RTVSPropertyOp56
 70
     1
102
RTVSPropertyOp57
 70
     1
102
RTVSPropertyOp58
 70
     1
102
RTVSPropertyOp59
 70
     1
102
RTVSPropertyOp60
 70
     1
102
RTVSPropertyOp61
 70
     1
102
RTVSPropertyOp62
 70
     1
  0
XRECORD
  5
1044
102
{ACAD_REACTORS
330
1043
102
}
330
1043
100
AcDbXrecord
280
     1
330
DDA
  0
ACDBASSOCARRAYACTIONBODY
  5
1063
330
1062
100
AcDbAssocActionBody
 90
        1
100
AcDbAssocParamBasedActionBody
 90
        0
 90
        0
 90
        3
360
1064
360
1065
360
1069
 90
        0
 90
        9
 90
        0
  1
AlignItems
 90
        0
 90
        1
 90
        0
330
0
330
0
 90
        0
  1
AxesAngle
 90
        2
 90
        1
 40
1.570796326794896
330
0
330
0
 90
        0
  1
ItemSpacing
 90
        1
 90
        1
 40
35.3
330
0
330
0
 90
        0
  1
Items
 90
        0
 90
        1
 90
       13
330
0
330
0
 90
        0
  1
LevelSpacing
 90
        1
 90
        1
 40
1.0
330
0
330
0
 90
        0
  1
Levels
 90
        0
 90
        1
 90
        1
330
0
330
0
 90
        0
  1
RowElevation
 90
        1
 90
        1
 40
0.0
330
0
330
0
 90
        0
  1
RowSpacing
 90
        1
 90
        1
 40
75.0
330
0
330
0
 90
        0
  1
Rows
 90
        0
 90
        1
 90
        1
330
0
330
0
100
AcDbAssocArrayActionBody
 90
        1
  1
AcDbAssocArrayRectangularParameters
 90
        0
 90
       13
  1
AcDbAssocArrayItem
100
AcDbAssocArrayItem
 90
        0
 90
        0
 90
        0
 90
        0
 90
        8
 11
0.0
 21
0.0
 31
0.0
330
106B
100
AcDbAssocArrayItem
 90
        0
 90
        1
 90
        0
 90
        0
 90
        8
 11
35.3
 21
0.0
 31
0.0
330
106C
100
AcDbAssocArrayItem
 90
        0
 90
        2
 90
        0
 90
        0
 90
        8
 11
70.59999999999999
 21
0.0
 31
0.0
330
106D
100
AcDbAssocArrayItem
 90
        0
 90
        3
 90
        0
 90
        0
 90
        8
 11
105.9
 21
0.0
 31
0.0
330
106E
100
AcDbAssocArrayItem
 90
        0
 90
        4
 90
        0
 90
        0
 90
        8
 11
141.2
 21
0.0
 31
0.0
330
106F
100
AcDbAssocArrayItem
 90
        0
 90
        5
 90
        0
 90
        0
 90
        8
 11
176.5
 21
0.0
 31
0.0
330
1070
100
AcDbAssocArrayItem
 90
        0
 90
        6
 90
        0
 90
        0
 90
        8
 11
211.8
 21
0.0
 31
0.0
330
1071
100
AcDbAssocArrayItem
 90
        0
 90
        7
 90
        0
 90
        0
 90
        8
 11
247.1
 21
0.0
 31
0.0
330
1072
100
AcDbAssocArrayItem
 90
        0
 90
        8
 90
        0
 90
        0
 90
        8
 11
282.4
 21
0.0
 31
0.0
330
1073
100
AcDbAssocArrayItem
 90
        0
 90
        9
 90
        0
 90
        0
 90
        8
 11
317.7
 21
0.0
 31
0.0
330
1074
100
AcDbAssocArrayItem
 90
        0
 90
       10
 90
        0
 90
        0
 90
        8
 11
353.0
 21
0.0
 31
0.0
330
1075
100
AcDbAssocArrayItem
 90
        0
 90
       11
 90
        0
 90
        0
 90
        8
 11
388.3
 21
0.0
 31
0.0
330
1076
100
AcDbAssocArrayItem
 90
        0
 90
       12
 90
        0
 90
        0
 90
        8
 11
423.5999999999999
 21
0.0
 31
0.0
330
1077
 40
1.0
 40
0.0
 40
0.0
 40
494.9070084567661
 40
0.0
 40
1.0
 40
0.0
 40
715.4863152268863
 40
0.0
 40
0.0
 40
1.0
 40
0.0
 40
0.0
 40
0.0
 40
0.0
 40
1.0
  0
ACDBASSOCDEPENDENCY
  5
1066
330
1062
100
AcDbAssocDependency
 90
        2
 90
        1
290
     0
290
     1
290
     1
290
     1
 90
        0
330
1049
290
     0
330
0
330
0
360
0
 90
        1
  0
ACDBASSOCDEPENDENCY
  5
1067
330
1062
100
AcDbAssocDependency
 90
        2
 90
        1
290
     1
290
     0
290
     1
290
     1
 90
        0
330
1046
290
     0
330
0
330
0
360
0
 90
        2
  0
ACDBASSOCDEPENDENCY
  5
1068
330
1062
100
AcDbAssocDependency
 90
        2
 90
        0
290
     1
290
     1
290
     1
290
     1
 90
-2147483648
330
104C
290
     0
330
0
330
0
360
0
 90
        3
  0
ACDBASSOCARRAYACTIONBODY
  5
10CF
330
10CE
100
AcDbAssocActionBody
 90
        1
100
AcDbAssocParamBasedActionBody
 90
        0
 90
        0
 90
        3
360
10D0
360
10D1
360
10D5
 90
        0
 90
        9
 90
        0
  1
AlignItems
 90
        0
 90
        1
 90
        0
330
0
330
0
 90
        0
  1
AxesAngle
 90
        2
 90
        1
 40
1.570796326794896
330
0
330
0
 90
        0
  1
ItemSpacing
 90
        1
 90
        1
 40
35.3
330
0
330
0
 90
        0
  1
Items
 90
        0
 90
        1
 90
       13
330
0
330
0
 90
        0
  1
LevelSpacing
 90
        1
 90
        1
 40
1.0
330
0
330
0
 90
        0
  1
Levels
 90
        0
 90
        1
 90
        1
330
0
330
0
 90
        0
  1
RowElevation
 90
        1
 90
        1
 40
0.0
330
0
330
0
 90
        0
  1
RowSpacing
 90
        1
 90
        1
 40
631.5
330
0
330
0
 90
        0
  1
Rows
 90
        0
 90
        1
 90
        1
330
0
330
0
100
AcDbAssocArrayActionBody
 90
        1
  1
AcDbAssocArrayRectangularParameters
 90
        0
 90
       13
  1
AcDbAssocArrayItem
100
AcDbAssocArrayItem
 90
        0
 90
        0
 90
        0
 90
        0
 90
        8
 11
0.0
 21
0.0
 31
0.0
330
10D7
100
AcDbAssocArrayItem
 90
        0
 90
        1
 90
        0
 90
        0
 90
        8
 11
35.3
 21
0.0
 31
0.0
330
10D8
100
AcDbAssocArrayItem
 90
        0
 90
        2
 90
        0
 90
        0
 90
        8
 11
70.59999999999999
 21
0.0
 31
0.0
330
10D9
100
AcDbAssocArrayItem
 90
        0
 90
        3
 90
        0
 90
        0
 90
        8
 11
105.9
 21
0.0
 31
0.0
330
10DA
100
AcDbAssocArrayItem
 90
        0
 90
        4
 90
        0
 90
        0
 90
        8
 11
141.2
 21
0.0
 31
0.0
330
10DB
100
AcDbAssocArrayItem
 90
        0
 90
        5
 90
        0
 90
        0
 90
        8
 11
176.5
 21
0.0
 31
0.0
330
10DC
100
AcDbAssocArrayItem
 90
        0
 90
        6
 90
        0
 90
        0
 90
        8
 11
211.8
 21
0.0
 31
0.0
330
10DD
100
AcDbAssocArrayItem
 90
        0
 90
        7
 90
        0
 90
        0
 90
        8
 11
247.1
 21
0.0
 31
0.0
330
10DE
100
AcDbAssocArrayItem
 90
        0
 90
        8
 90
        0
 90
        0
 90
        8
 11
282.4
 21
0.0
 31
0.0
330
10DF
100
AcDbAssocArrayItem
 90
        0
 90
        9
 90
        0
 90
        0
 90
        8
 11
317.7
 21
0.0
 31
0.0
330
10E0
100
AcDbAssocArrayItem
 90
        0
 90
       10
 90
        0
 90
        0
 90
        8
 11
353.0
 21
0.0
 31
0.0
330
10E1
100
AcDbAssocArrayItem
 90
        0
 90
       11
 90
        0
 90
        0
 90
        8
 11
388.3
 21
0.0
 31
0.0
330
10E2
100
AcDbAssocArrayItem
 90
        0
 90
       12
 90
        0
 90
        0
 90
        8
 11
423.5999999999999
 21
0.0
 31
0.0
330
10E3
 40
1.0
 40
0.0
 40
0.0
 40
492.1570084567661
 40
0.0
 40
1.0
 40
0.0
 40
1459.570393950034
 40
0.0
 40
0.0
 40
1.0
 40
0.0
 40
0.0
 40
0.0
 40
0.0
 40
1.0
  0
ACDBASSOCDEPENDENCY
  5
10D2
330
10CE
100
AcDbAssocDependency
 90
        2
 90
        1
290
     0
290
     1
290
     1
290
     1
 90
        0
330
107C
290
     0
330
0
330
0
360
0
 90
        1
  0
ACDBASSOCDEPENDENCY
  5
10D3
330
10CE
100
AcDbAssocDependency
 90
        2
 90
        1
290
     1
290
     0
290
     1
290
     1
 90
        0
330
1079
290
     0
330
0
330
0
360
0
 90
        2
  0
ACDBASSOCDEPENDENCY
  5
10D4
330
10CE
100
AcDbAssocDependency
 90
        2
 90
        0
290
     1
290
     1
290
     1
290
     1
 90
-2147483648
330
107F
290
     0
330
0
330
0
360
0
 90
        3
  0
ACDBASSOCVERTEXACTIONPARAM
  5
1064
330
1063
100
AcDbAssocActionParam
 90
        0
  1
BaseNormal
100
AcDbAssocSingleDependencyActionParam
 90
        0
330
0
100
AcDbAssocVertexActionParam
 90
        0
 10
0.0
 20
0.0
 30
1.0
  0
ACDBASSOCVERTEXACTIONPARAM
  5
1065
330
1063
100
AcDbAssocActionParam
 90
        0
  1
Origin
100
AcDbAssocSingleDependencyActionParam
 90
        0
330
0
100
AcDbAssocVertexActionParam
 90
        0
 10
0.0
 20
0.0
 30
0.0
  0
ACDBASSOCVERTEXACTIONPARAM
  5
1069
330
1063
100
AcDbAssocActionParam
 90
        0
  1
basePoint
100
AcDbAssocSingleDependencyActionParam
 90
        0
330
0
100
AcDbAssocVertexActionParam
 90
        0
 10
0.0
 20
0.0
 30
0.0
  0
ACDBASSOCVERTEXACTIONPARAM
  5
10D0
330
10CF
100
AcDbAssocActionParam
 90
        0
  1
BaseNormal
100
AcDbAssocSingleDependencyActionParam
 90
        0
330
0
100
AcDbAssocVertexActionParam
 90
        0
 10
0.0
 20
0.0
 30
1.0
  0
ACDBASSOCVERTEXACTIONPARAM
  5
10D1
330
10CF
100
AcDbAssocActionParam
 90
        0
  1
Origin
100
AcDbAssocSingleDependencyActionParam
 90
        0
330
0
100
AcDbAssocVertexActionParam
 90
        0
 10
0.0
 20
0.0
 30
0.0
  0
ACDBASSOCVERTEXACTIONPARAM
  5
10D5
330
10CF
100
AcDbAssocActionParam
 90
        0
  1
basePoint
100
AcDbAssocSingleDependencyActionParam
 90
        0
330
0
100
AcDbAssocVertexActionParam
 90
        0
 10
0.0
 20
0.0
 30
0.0
  0
ENDSEC
  0
EOF
